  0
SECTION
  2
HEADER
  9
$ACADVER
  1
AC1021
  9
$ACADMAINTVER
 70
    50
  9
$DWGCODEPAGE
  3
ANSI_936
  9
$LASTSAVEDBY
  1
Lenovo
  9
$INSBASE
 10
0.0
 20
0.0
 30
0.0
  9
$EXTMIN
 10
2192.799407578308
 20
102.4124081323616
 30
-0.0000000000112498
  9
$EXTMAX
 10
4104.210525172759
 20
1282.513310578156
 30
0.0000000000002956
  9
$LIMMIN
 10
0.0
 20
0.0
  9
$LIMMAX
 10
420.0
 20
297.0
  9
$ORTHOMODE
 70
     1
  9
$REGENMODE
 70
     1
  9
$FILLMODE
 70
     1
  9
$QTEXTMODE
 70
     0
  9
$MIRRTEXT
 70
     0
  9
$LTSCALE
 40
1.0
  9
$ATTMODE
 70
     1
  9
$TEXTSIZE
 40
2.5
  9
$TRACEWID
 40
1.0
  9
$TEXTSTYLE
  7
Standard
  9
$CLAYER
  8
图层2
  9
$CELTYPE
  6
ByLayer
  9
$CECOLOR
 62
   256
  9
$CELTSCALE
 40
1.0
  9
$DISPSILH
 70
     0
  9
$DIMSCALE
 40
1.0
  9
$DIMASZ
 40
15.0
  9
$DIMEXO
 40
0.625
  9
$DIMDLI
 40
3.75
  9
$DIMRND
 40
0.0
  9
$DIMDLE
 40
0.0
  9
$DIMEXE
 40
1.25
  9
$DIMTP
 40
0.0
  9
$DIMTM
 40
0.0
  9
$DIMTXT
 40
15.0
  9
$DIMCEN
 40
2.5
  9
$DIMTSZ
 40
0.0
  9
$DIMTOL
 70
     0
  9
$DIMLIM
 70
     0
  9
$DIMTIH
 70
     0
  9
$DIMTOH
 70
     0
  9
$DIMSE1
 70
     0
  9
$DIMSE2
 70
     0
  9
$DIMTAD
 70
     1
  9
$DIMZIN
 70
     8
  9
$DIMBLK
  1

  9
$DIMASO
 70
     1
  9
$DIMSHO
 70
     1
  9
$DIMPOST
  1

  9
$DIMAPOST
  1

  9
$DIMALT
 70
     0
  9
$DIMALTD
 70
     3
  9
$DIMALTF
 40
0.03937007874016
  9
$DIMLFAC
 40
1.0
  9
$DIMTOFL
 70
     1
  9
$DIMTVP
 40
0.0
  9
$DIMTIX
 70
     0
  9
$DIMSOXD
 70
     0
  9
$DIMSAH
 70
     0
  9
$DIMBLK1
  1

  9
$DIMBLK2
  1

  9
$DIMSTYLE
  2
ISO-25
  9
$DIMCLRD
 70
     0
  9
$DIMCLRE
 70
     0
  9
$DIMCLRT
 70
     0
  9
$DIMTFAC
 40
1.0
  9
$DIMGAP
 40
2.0
  9
$DIMJUST
 70
     0
  9
$DIMSD1
 70
     0
  9
$DIMSD2
 70
     0
  9
$DIMTOLJ
 70
     0
  9
$DIMTZIN
 70
     8
  9
$DIMALTZ
 70
     0
  9
$DIMALTTZ
 70
     0
  9
$DIMUPT
 70
     0
  9
$DIMDEC
 70
     2
  9
$DIMTDEC
 70
     2
  9
$DIMALTU
 70
     2
  9
$DIMALTTD
 70
     3
  9
$DIMTXSTY
  7
Standard
  9
$DIMAUNIT
 70
     0
  9
$DIMADEC
 70
     0
  9
$DIMALTRND
 40
0.0
  9
$DIMAZIN
 70
     0
  9
$DIMDSEP
 70
    44
  9
$DIMATFIT
 70
     3
  9
$DIMFRAC
 70
     0
  9
$DIMLDRBLK
  1

  9
$DIMLUNIT
 70
     2
  9
$DIMLWD
 70
    -2
  9
$DIMLWE
 70
    -2
  9
$DIMTMOVE
 70
     0
  9
$DIMFXL
 40
1.0
  9
$DIMFXLON
 70
     0
  9
$DIMJOGANG
 40
0.7853981633974483
  9
$DIMTFILL
 70
     0
  9
$DIMTFILLCLR
 70
     0
  9
$DIMARCSYM
 70
     0
  9
$DIMLTYPE
  6

  9
$DIMLTEX1
  6

  9
$DIMLTEX2
  6

  9
$LUNITS
 70
     2
  9
$LUPREC
 70
     4
  9
$SKETCHINC
 40
1.0
  9
$FILLETRAD
 40
0.0
  9
$AUNITS
 70
     0
  9
$AUPREC
 70
     0
  9
$MENU
  1
.
  9
$ELEVATION
 40
0.0
  9
$PELEVATION
 40
0.0
  9
$THICKNESS
 40
0.0
  9
$LIMCHECK
 70
     0
  9
$CHAMFERA
 40
0.0
  9
$CHAMFERB
 40
0.0
  9
$CHAMFERC
 40
0.0
  9
$CHAMFERD
 40
0.0
  9
$SKPOLY
 70
     0
  9
$TDCREATE
 40
2453802.448840104
  9
$TDUCREATE
 40
2453802.115506771
  9
$TDUPDATE
 40
2457071.427522558
  9
$TDUUPDATE
 40
2457071.094189225
  9
$TDINDWG
 40
0.1077155556
  9
$TDUSRTIMER
 40
0.1077155556
  9
$USRTIMER
 70
     1
  9
$ANGBASE
 50
0.0
  9
$ANGDIR
 70
     0
  9
$PDMODE
 70
     0
  9
$PDSIZE
 40
0.0
  9
$PLINEWID
 40
0.0
  9
$SPLFRAME
 70
     0
  9
$SPLINETYPE
 70
     6
  9
$SPLINESEGS
 70
     8
  9
$HANDSEED
  5
1303
  9
$SURFTAB1
 70
     6
  9
$SURFTAB2
 70
     6
  9
$SURFTYPE
 70
     6
  9
$SURFU
 70
     6
  9
$SURFV
 70
     6
  9
$UCSBASE
  2

  9
$UCSNAME
  2

  9
$UCSORG
 10
0.0
 20
0.0
 30
0.0
  9
$UCSXDIR
 10
1.0
 20
0.0
 30
0.0
  9
$UCSYDIR
 10
0.0
 20
1.0
 30
0.0
  9
$UCSORTHOREF
  2

  9
$UCSORTHOVIEW
 70
     0
  9
$UCSORGTOP
 10
0.0
 20
0.0
 30
0.0
  9
$UCSORGBOTTOM
 10
0.0
 20
0.0
 30
0.0
  9
$UCSORGLEFT
 10
0.0
 20
0.0
 30
0.0
  9
$UCSORGRIGHT
 10
0.0
 20
0.0
 30
0.0
  9
$UCSORGFRONT
 10
0.0
 20
0.0
 30
0.0
  9
$UCSORGBACK
 10
0.0
 20
0.0
 30
0.0
  9
$PUCSBASE
  2

  9
$PUCSNAME
  2

  9
$PUCSORG
 10
0.0
 20
0.0
 30
0.0
  9
$PUCSXDIR
 10
1.0
 20
0.0
 30
0.0
  9
$PUCSYDIR
 10
0.0
 20
1.0
 30
0.0
  9
$PUCSORTHOREF
  2

  9
$PUCSORTHOVIEW
 70
     0
  9
$PUCSORGTOP
 10
0.0
 20
0.0
 30
0.0
  9
$PUCSORGBOTTOM
 10
0.0
 20
0.0
 30
0.0
  9
$PUCSORGLEFT
 10
0.0
 20
0.0
 30
0.0
  9
$PUCSORGRIGHT
 10
0.0
 20
0.0
 30
0.0
  9
$PUCSORGFRONT
 10
0.0
 20
0.0
 30
0.0
  9
$PUCSORGBACK
 10
0.0
 20
0.0
 30
0.0
  9
$USERI1
 70
     0
  9
$USERI2
 70
     0
  9
$USERI3
 70
     0
  9
$USERI4
 70
     0
  9
$USERI5
 70
     0
  9
$USERR1
 40
0.0
  9
$USERR2
 40
0.0
  9
$USERR3
 40
0.0
  9
$USERR4
 40
0.0
  9
$USERR5
 40
0.0
  9
$WORLDVIEW
 70
     1
  9
$SHADEDGE
 70
     3
  9
$SHADEDIF
 70
    70
  9
$TILEMODE
 70
     1
  9
$MAXACTVP
 70
    64
  9
$PINSBASE
 10
0.0
 20
0.0
 30
0.0
  9
$PLIMCHECK
 70
     0
  9
$PEXTMIN
 10
0.0
 20
0.0
 30
0.0
  9
$PEXTMAX
 10
0.0
 20
0.0
 30
0.0
  9
$PLIMMIN
 10
0.0
 20
0.0
  9
$PLIMMAX
 10
12.0
 20
9.0
  9
$UNITMODE
 70
     0
  9
$VISRETAIN
 70
     1
  9
$PLINEGEN
 70
     0
  9
$PSLTSCALE
 70
     1
  9
$TREEDEPTH
 70
  3020
  9
$CMLSTYLE
  2
Standard
  9
$CMLJUST
 70
     0
  9
$CMLSCALE
 40
20.0
  9
$PROXYGRAPHICS
 70
     1
  9
$MEASUREMENT
 70
     1
  9
$CELWEIGHT
370
    -1
  9
$ENDCAPS
280
     0
  9
$JOINSTYLE
280
     0
  9
$LWDISPLAY
290
     0
  9
$INSUNITS
 70
     4
  9
$HYPERLINKBASE
  1

  9
$STYLESHEET
  1

  9
$XEDIT
290
     1
  9
$CEPSNTYPE
380
     0
  9
$PSTYLEMODE
290
     1
  9
$FINGERPRINTGUID
  2
{FDEAD578-A652-11D2-9A35-0060089B3A3F}
  9
$VERSIONGUID
  2
{B8A0AA68-6B01-4796-AEFA-2073338EC6F9}
  9
$EXTNAMES
290
     1
  9
$PSVPSCALE
 40
0.0
  9
$OLESTARTUP
290
     0
  9
$SORTENTS
280
   127
  9
$INDEXCTL
280
     0
  9
$HIDETEXT
280
     1
  9
$XCLIPFRAME
290
     0
  9
$HALOGAP
280
     0
  9
$OBSCOLOR
 70
   257
  9
$OBSLTYPE
280
     0
  9
$INTERSECTIONDISPLAY
280
     0
  9
$INTERSECTIONCOLOR
 70
   257
  9
$DIMASSOC
280
     2
  9
$PROJECTNAME
  1

  9
$CAMERADISPLAY
290
     0
  9
$LENSLENGTH
 40
50.0
  9
$CAMERAHEIGHT
 40
0.0
  9
$STEPSPERSEC
 40
2.0
  9
$STEPSIZE
 40
6.0
  9
$3DDWFPREC
 40
2.0
  9
$PSOLWIDTH
 40
0.25
  9
$PSOLHEIGHT
 40
4.0
  9
$LOFTANG1
 40
1.570796326794896
  9
$LOFTANG2
 40
1.570796326794896
  9
$LOFTMAG1
 40
0.0
  9
$LOFTMAG2
 40
0.0
  9
$LOFTPARAM
 70
     7
  9
$LOFTNORMALS
280
     1
  9
$LATITUDE
 40
37.795
  9
$LONGITUDE
 40
-122.394
  9
$NORTHDIRECTION
 40
0.0
  9
$TIMEZONE
 70
 -8000
  9
$LIGHTGLYPHDISPLAY
280
     1
  9
$TILEMODELIGHTSYNCH
280
     1
  9
$CMATERIAL
347
124C
  9
$SOLIDHIST
280
     0
  9
$SHOWHIST
280
     1
  9
$DWFFRAME
280
     2
  9
$DGNFRAME
280
     0
  9
$REALWORLDSCALE
290
     1
  9
$INTERFERECOLOR
 62
     1
  9
$INTERFEREOBJVS
345
126E
  9
$INTERFEREVPVS
346
126B
  9
$CSHADOW
280
     0
  9
$SHADOWPLANELOCATION
 40
0.0
  0
ENDSEC
  0
SECTION
  2
CLASSES
  0
CLASS
  1
ACDBDICTIONARYWDFLT
  2
AcDbDictionaryWithDefault
  3
ObjectDBX Classes
 90
        0
 91
        1
280
     0
281
     0
  0
CLASS
  1
DICTIONARYVAR
  2
AcDbDictionaryVar
  3
ObjectDBX Classes
 90
        0
 91
       11
280
     0
281
     0
  0
CLASS
  1
DIMASSOC
  2
AcDbDimAssoc
  3
"AcDbDimAssoc|Product Desc:     AcDim ARX App For Dimension|Company:          Autodesk, Inc.|WEB Address:      www.autodesk.com"
 90
        0
 91
       14
280
     0
281
     0
  0
CLASS
  1
MATERIAL
  2
AcDbMaterial
  3
ObjectDBX Classes
 90
     1153
 91
        3
280
     0
281
     0
  0
CLASS
  1
VISUALSTYLE
  2
AcDbVisualStyle
  3
ObjectDBX Classes
 90
     4095
 91
       24
280
     0
281
     0
  0
CLASS
  1
TABLESTYLE
  2
AcDbTableStyle
  3
ObjectDBX Classes
 90
     4095
 91
        1
280
     0
281
     0
  0
CLASS
  1
SCALE
  2
AcDbScale
  3
ObjectDBX Classes
 90
     1153
 91
       17
280
     0
281
     0
  0
CLASS
  1
MLEADERSTYLE
  2
AcDbMLeaderStyle
  3
ACDB_MLEADERSTYLE_CLASS
 90
     4095
 91
        1
280
     0
281
     0
  0
CLASS
  1
SORTENTSTABLE
  2
AcDbSortentsTable
  3
ObjectDBX Classes
 90
        0
 91
        3
280
     0
281
     0
  0
CLASS
  1
CELLSTYLEMAP
  2
AcDbCellStyleMap
  3
ObjectDBX Classes
 90
     1152
 91
        1
280
     0
281
     0
  0
ENDSEC
  0
SECTION
  2
TABLES
  0
TABLE
  2
VPORT
  5
8
330
0
100
AcDbSymbolTable
 70
     1
  0
VPORT
  5
1240
330
8
100
AcDbSymbolTableRecord
100
AcDbViewportTableRecord
  2
*Active
 70
     0
 10
0.0
 20
0.0
 11
1.0
 21
1.0
 12
3201.35903027834
 22
669.1599864998773
 13
0.0
 23
0.0
 14
10.0
 24
10.0
 15
10.0
 25
10.0
 16
0.0
 26
0.0
 36
1.0
 17
0.0
 27
0.0
 37
0.0
 40
663.2314881691096
 41
2.473267326732673
 42
50.0
 43
0.0
 44
0.0
 50
0.0
 51
0.0
 71
     0
 72
  1000
 73
     1
 74
     3
 75
     0
 76
     0
 77
     0
 78
     0
281
     0
 65
     1
110
0.0
120
0.0
130
0.0
111
1.0
121
0.0
131
0.0
112
0.0
122
1.0
132
0.0
 79
     0
146
0.0
348
126A
 60
     3
 61
     5
292
     1
282
     1
141
0.0
142
0.0
 63
   250
421
  3355443
1001
ACAD_NAV_VCDISPLAY
1070
     3
  0
ENDTAB
  0
TABLE
  2
LTYPE
  5
5
330
0
100
AcDbSymbolTable
 70
     3
  0
LTYPE
  5
14
330
5
100
AcDbSymbolTableRecord
100
AcDbLinetypeTableRecord
  2
ByBlock
 70
     0
  3

 72
    65
 73
     0
 40
0.0
  0
LTYPE
  5
15
330
5
100
AcDbSymbolTableRecord
100
AcDbLinetypeTableRecord
  2
ByLayer
 70
     0
  3

 72
    65
 73
     0
 40
0.0
  0
LTYPE
  5
16
330
5
100
AcDbSymbolTableRecord
100
AcDbLinetypeTableRecord
  2
Continuous
 70
     0
  3
Solid line
 72
    65
 73
     0
 40
0.0
  0
LTYPE
  5
2ED
330
5
100
AcDbSymbolTableRecord
100
AcDbLinetypeTableRecord
  2
HIDDEN2
 70
     0
  3
Hidden (.5x) _ _ _ _ _ _ _ _ _ _ _ _ _ _ _ _ _
 72
    65
 73
     2
 40
4.762499999999998
 49
3.174999999999998
 74
     0
 49
-1.587499999999999
 74
     0
  0
ENDTAB
  0
TABLE
  2
LAYER
  5
2
102
{ACAD_XDICTIONARY
360
1298
102
}
330
0
100
AcDbSymbolTable
 70
     5
  0
LAYER
  5
10
102
{ACAD_XDICTIONARY
360
12BF
102
}
330
2
100
AcDbSymbolTableRecord
100
AcDbLayerTableRecord
  2
0
 70
     0
 62
     7
  6
Continuous
370
    -3
390
F
347
125C
  0
LAYER
  5
C3
102
{ACAD_XDICTIONARY
360
12C1
102
}
330
2
100
AcDbSymbolTableRecord
100
AcDbLayerTableRecord
  2
Title Block
 70
     0
 62
     7
  6
Continuous
370
    -3
390
F
347
125C
  0
LAYER
  5
C4
102
{ACAD_XDICTIONARY
360
12C3
102
}
330
2
100
AcDbSymbolTableRecord
100
AcDbLayerTableRecord
  2
图层2
 70
     0
 62
     7
  6
Continuous
370
    -3
390
F
347
125C
  0
LAYER
  5
114
330
2
100
AcDbSymbolTableRecord
100
AcDbLayerTableRecord
  2
Defpoints
 70
     0
 62
     7
  6
Continuous
290
     0
370
    -3
390
F
347
125C
  0
LAYER
  5
2EE
102
{ACAD_XDICTIONARY
360
12C5
102
}
330
2
100
AcDbSymbolTableRecord
100
AcDbLayerTableRecord
  2
图层1
 70
     0
 62
     7
  6
HIDDEN2
370
    -3
390
F
347
125C
  0
ENDTAB
  0
TABLE
  2
STYLE
  5
3
330
0
100
AcDbSymbolTable
 70
     2
  0
STYLE
  5
11
330
3
100
AcDbSymbolTableRecord
100
AcDbTextStyleTableRecord
  2
Standard
 70
     0
 40
0.0
 41
1.0
 50
0.0
 71
     0
 42
2.5
  3
txt
  4

  0
STYLE
  5
2EC
330
3
100
AcDbSymbolTableRecord
100
AcDbTextStyleTableRecord
  2

 70
     1
 40
0.0
 41
1.0
 50
0.0
 71
     0
 42
2.5
  3
ltypeshp.shx
  4

  0
ENDTAB
  0
TABLE
  2
VIEW
  5
6
330
0
100
AcDbSymbolTable
 70
     0
  0
ENDTAB
  0
TABLE
  2
UCS
  5
7
330
0
100
AcDbSymbolTable
 70
     0
  0
ENDTAB
  0
TABLE
  2
APPID
  5
9
330
0
100
AcDbSymbolTable
 70
     4
  0
APPID
  5
12
330
9
100
AcDbSymbolTableRecord
100
AcDbRegAppTableRecord
  2
ACAD
 70
     0
  0
APPID
  5
1297
330
9
100
AcDbSymbolTableRecord
100
AcDbRegAppTableRecord
  2
ACAD_NAV_VCDISPLAY
 70
     0
  0
APPID
  5
12A8
330
9
100
AcDbSymbolTableRecord
100
AcDbRegAppTableRecord
  2
ACAD_EXEMPT_FROM_CAD_STANDARDS
 70
     0
  0
APPID
  5
1302
330
9
100
AcDbSymbolTableRecord
100
AcDbRegAppTableRecord
  2
ACAD_MLEADERVER
 70
     0
  0
ENDTAB
  0
TABLE
  2
DIMSTYLE
  5
A
330
0
100
AcDbSymbolTable
 70
     2
100
AcDbDimStyleTable
 71
     1
340
27
  0
DIMSTYLE
105
27
102
{ACAD_REACTORS
330
110F
330
1127
330
113F
330
1157
330
116F
330
117F
330
118F
330
119F
330
11AF
330
11BF
330
11CF
330
11DF
330
11F0
330
1200
330
1222
330
1231
102
}
330
A
100
AcDbSymbolTableRecord
100
AcDbDimStyleTableRecord
  2
ISO-25
 70
     0
 41
2.5
 42
0.625
 43
3.75
 44
1.25
 73
     0
 74
     0
 77
     1
 78
     8
140
2.5
141
2.5
143
0.03937007874016
147
0.625
171
     3
172
     1
271
     2
272
     2
274
     3
278
    44
283
     0
284
     8
340
11
  0
DIMSTYLE
105
457
330
A
100
AcDbSymbolTableRecord
100
AcDbDimStyleTableRecord
  2
Standard
 70
     0
340
11
  0
ENDTAB
  0
TABLE
  2
BLOCK_RECORD
  5
1
330
0
100
AcDbSymbolTable
 70
    87
  0
BLOCK_RECORD
  5
1F
102
{ACAD_XDICTIONARY
360
12BD
102
}
330
1
100
AcDbSymbolTableRecord
100
AcDbBlockTableRecord
  2
*Model_Space
340
22
 70
     0
280
     1
281
     0
  0
BLOCK_RECORD
  5
50
330
1
100
AcDbSymbolTableRecord
100
AcDbBlockTableRecord
  2
*Paper_Space
340
51
 70
     0
280
     1
281
     0
  0
BLOCK_RECORD
  5
55
330
1
100
AcDbSymbolTableRecord
100
AcDbBlockTableRecord
  2
*Paper_Space0
340
56
 70
     0
280
     1
281
     0
  0
BLOCK_RECORD
  5
115
330
1
100
AcDbSymbolTableRecord
100
AcDbBlockTableRecord
  2
*D1
340
0
 70
     0
280
     1
281
     0
  0
BLOCK_RECORD
  5
155
330
1
100
AcDbSymbolTableRecord
100
AcDbBlockTableRecord
  2
*D2
340
0
 70
     0
280
     1
281
     0
  0
BLOCK_RECORD
  5
1C4
330
1
100
AcDbSymbolTableRecord
100
AcDbBlockTableRecord
  2
*D3
340
0
 70
     0
280
     1
281
     0
  0
BLOCK_RECORD
  5
1D4
330
1
100
AcDbSymbolTableRecord
100
AcDbBlockTableRecord
  2
*D4
340
0
 70
     0
280
     1
281
     0
  0
BLOCK_RECORD
  5
1E4
330
1
100
AcDbSymbolTableRecord
100
AcDbBlockTableRecord
  2
*D5
340
0
 70
     0
280
     1
281
     0
  0
BLOCK_RECORD
  5
1F4
330
1
100
AcDbSymbolTableRecord
100
AcDbBlockTableRecord
  2
*D6
340
0
 70
     0
280
     1
281
     0
  0
BLOCK_RECORD
  5
204
330
1
100
AcDbSymbolTableRecord
100
AcDbBlockTableRecord
  2
*D7
340
0
 70
     0
280
     1
281
     0
  0
BLOCK_RECORD
  5
214
330
1
100
AcDbSymbolTableRecord
100
AcDbBlockTableRecord
  2
*D8
340
0
 70
     0
280
     1
281
     0
  0
BLOCK_RECORD
  5
242
330
1
100
AcDbSymbolTableRecord
100
AcDbBlockTableRecord
  2
*D9
340
0
 70
     0
280
     1
281
     0
  0
BLOCK_RECORD
  5
265
330
1
100
AcDbSymbolTableRecord
100
AcDbBlockTableRecord
  2
*D10
340
0
 70
     0
280
     1
281
     0
  0
BLOCK_RECORD
  5
33F
330
1
100
AcDbSymbolTableRecord
100
AcDbBlockTableRecord
  2
*D11
340
0
 70
     0
280
     1
281
     0
  0
BLOCK_RECORD
  5
359
330
1
100
AcDbSymbolTableRecord
100
AcDbBlockTableRecord
  2
*D12
340
0
 70
     0
280
     1
281
     0
  0
BLOCK_RECORD
  5
37F
330
1
100
AcDbSymbolTableRecord
100
AcDbBlockTableRecord
  2
*D13
340
0
 70
     0
280
     1
281
     0
  0
BLOCK_RECORD
  5
397
330
1
100
AcDbSymbolTableRecord
100
AcDbBlockTableRecord
  2
*D14
340
0
 70
     0
280
     1
281
     0
  0
BLOCK_RECORD
  5
3FD
330
1
100
AcDbSymbolTableRecord
100
AcDbBlockTableRecord
  2
*D15
340
0
 70
     0
280
     1
281
     0
  0
BLOCK_RECORD
  5
4BC
330
1
100
AcDbSymbolTableRecord
100
AcDbBlockTableRecord
  2
*D16
340
0
 70
     0
280
     1
281
     0
  0
BLOCK_RECORD
  5
4D4
330
1
100
AcDbSymbolTableRecord
100
AcDbBlockTableRecord
  2
*D17
340
0
 70
     0
280
     1
281
     0
  0
BLOCK_RECORD
  5
4EC
330
1
100
AcDbSymbolTableRecord
100
AcDbBlockTableRecord
  2
*D18
340
0
 70
     0
280
     1
281
     0
  0
BLOCK_RECORD
  5
504
330
1
100
AcDbSymbolTableRecord
100
AcDbBlockTableRecord
  2
*D19
340
0
 70
     0
280
     1
281
     0
  0
BLOCK_RECORD
  5
51C
330
1
100
AcDbSymbolTableRecord
100
AcDbBlockTableRecord
  2
*D20
340
0
 70
     0
280
     1
281
     0
  0
BLOCK_RECORD
  5
52C
330
1
100
AcDbSymbolTableRecord
100
AcDbBlockTableRecord
  2
*D21
340
0
 70
     0
280
     1
281
     0
  0
BLOCK_RECORD
  5
53C
330
1
100
AcDbSymbolTableRecord
100
AcDbBlockTableRecord
  2
*D22
340
0
 70
     0
280
     1
281
     0
  0
BLOCK_RECORD
  5
54C
330
1
100
AcDbSymbolTableRecord
100
AcDbBlockTableRecord
  2
*D23
340
0
 70
     0
280
     1
281
     0
  0
BLOCK_RECORD
  5
55C
330
1
100
AcDbSymbolTableRecord
100
AcDbBlockTableRecord
  2
*D24
340
0
 70
     0
280
     1
281
     0
  0
BLOCK_RECORD
  5
56C
330
1
100
AcDbSymbolTableRecord
100
AcDbBlockTableRecord
  2
*D25
340
0
 70
     0
280
     1
281
     0
  0
BLOCK_RECORD
  5
57C
330
1
100
AcDbSymbolTableRecord
100
AcDbBlockTableRecord
  2
*D26
340
0
 70
     0
280
     1
281
     0
  0
BLOCK_RECORD
  5
58C
330
1
100
AcDbSymbolTableRecord
100
AcDbBlockTableRecord
  2
*D27
340
0
 70
     0
280
     1
281
     0
  0
BLOCK_RECORD
  5
59C
330
1
100
AcDbSymbolTableRecord
100
AcDbBlockTableRecord
  2
*D28
340
0
 70
     0
280
     1
281
     0
  0
BLOCK_RECORD
  5
5AC
330
1
100
AcDbSymbolTableRecord
100
AcDbBlockTableRecord
  2
*D29
340
0
 70
     0
280
     1
281
     0
  0
BLOCK_RECORD
  5
651
330
1
100
AcDbSymbolTableRecord
100
AcDbBlockTableRecord
  2
*D30
340
0
 70
     0
280
     1
281
     0
  0
BLOCK_RECORD
  5
669
330
1
100
AcDbSymbolTableRecord
100
AcDbBlockTableRecord
  2
*D31
340
0
 70
     0
280
     1
281
     0
  0
BLOCK_RECORD
  5
681
330
1
100
AcDbSymbolTableRecord
100
AcDbBlockTableRecord
  2
*D32
340
0
 70
     0
280
     1
281
     0
  0
BLOCK_RECORD
  5
699
330
1
100
AcDbSymbolTableRecord
100
AcDbBlockTableRecord
  2
*D33
340
0
 70
     0
280
     1
281
     0
  0
BLOCK_RECORD
  5
6B1
330
1
100
AcDbSymbolTableRecord
100
AcDbBlockTableRecord
  2
*D34
340
0
 70
     0
280
     1
281
     0
  0
BLOCK_RECORD
  5
6C1
330
1
100
AcDbSymbolTableRecord
100
AcDbBlockTableRecord
  2
*D35
340
0
 70
     0
280
     1
281
     0
  0
BLOCK_RECORD
  5
6D1
330
1
100
AcDbSymbolTableRecord
100
AcDbBlockTableRecord
  2
*D36
340
0
 70
     0
280
     1
281
     0
  0
BLOCK_RECORD
  5
6E1
330
1
100
AcDbSymbolTableRecord
100
AcDbBlockTableRecord
  2
*D37
340
0
 70
     0
280
     1
281
     0
  0
BLOCK_RECORD
  5
6F1
330
1
100
AcDbSymbolTableRecord
100
AcDbBlockTableRecord
  2
*D38
340
0
 70
     0
280
     1
281
     0
  0
BLOCK_RECORD
  5
701
330
1
100
AcDbSymbolTableRecord
100
AcDbBlockTableRecord
  2
*D39
340
0
 70
     0
280
     1
281
     0
  0
BLOCK_RECORD
  5
711
330
1
100
AcDbSymbolTableRecord
100
AcDbBlockTableRecord
  2
*D40
340
0
 70
     0
280
     1
281
     0
  0
BLOCK_RECORD
  5
721
330
1
100
AcDbSymbolTableRecord
100
AcDbBlockTableRecord
  2
*D41
340
0
 70
     0
280
     1
281
     0
  0
BLOCK_RECORD
  5
9E7
330
1
100
AcDbSymbolTableRecord
100
AcDbBlockTableRecord
  2
*D42
340
0
 70
     0
280
     1
281
     0
  0
BLOCK_RECORD
  5
9FF
330
1
100
AcDbSymbolTableRecord
100
AcDbBlockTableRecord
  2
*D43
340
0
 70
     0
280
     1
281
     0
  0
BLOCK_RECORD
  5
A07
330
1
100
AcDbSymbolTableRecord
100
AcDbBlockTableRecord
  2
*D44
340
0
 70
     0
280
     1
281
     0
  0
BLOCK_RECORD
  5
A0F
330
1
100
AcDbSymbolTableRecord
100
AcDbBlockTableRecord
  2
*D45
340
0
 70
     0
280
     1
281
     0
  0
BLOCK_RECORD
  5
A17
330
1
100
AcDbSymbolTableRecord
100
AcDbBlockTableRecord
  2
*D46
340
0
 70
     0
280
     1
281
     0
  0
BLOCK_RECORD
  5
A1F
330
1
100
AcDbSymbolTableRecord
100
AcDbBlockTableRecord
  2
*D47
340
0
 70
     0
280
     1
281
     0
  0
BLOCK_RECORD
  5
A27
330
1
100
AcDbSymbolTableRecord
100
AcDbBlockTableRecord
  2
*D48
340
0
 70
     0
280
     1
281
     0
  0
BLOCK_RECORD
  5
B4B
330
1
100
AcDbSymbolTableRecord
100
AcDbBlockTableRecord
  2
*D49
340
0
 70
     0
280
     1
281
     0
  0
BLOCK_RECORD
  5
B64
330
1
100
AcDbSymbolTableRecord
100
AcDbBlockTableRecord
  2
*D50
340
0
 70
     0
280
     1
281
     0
  0
BLOCK_RECORD
  5
B7C
330
1
100
AcDbSymbolTableRecord
100
AcDbBlockTableRecord
  2
*D51
340
0
 70
     0
280
     1
281
     0
  0
BLOCK_RECORD
  5
B94
330
1
100
AcDbSymbolTableRecord
100
AcDbBlockTableRecord
  2
*D52
340
0
 70
     0
280
     1
281
     0
  0
BLOCK_RECORD
  5
BAC
330
1
100
AcDbSymbolTableRecord
100
AcDbBlockTableRecord
  2
*D53
340
0
 70
     0
280
     1
281
     0
  0
BLOCK_RECORD
  5
BC4
330
1
100
AcDbSymbolTableRecord
100
AcDbBlockTableRecord
  2
*D54
340
0
 70
     0
280
     1
281
     0
  0
BLOCK_RECORD
  5
BDC
330
1
100
AcDbSymbolTableRecord
100
AcDbBlockTableRecord
  2
*D55
340
0
 70
     0
280
     1
281
     0
  0
BLOCK_RECORD
  5
FDD
330
1
100
AcDbSymbolTableRecord
100
AcDbBlockTableRecord
  2
*D56
340
0
 70
     0
280
     1
281
     0
  0
BLOCK_RECORD
  5
FF5
330
1
100
AcDbSymbolTableRecord
100
AcDbBlockTableRecord
  2
*D57
340
0
 70
     0
280
     1
281
     0
  0
BLOCK_RECORD
  5
100D
330
1
100
AcDbSymbolTableRecord
100
AcDbBlockTableRecord
  2
*D58
340
0
 70
     0
280
     1
281
     0
  0
BLOCK_RECORD
  5
1025
330
1
100
AcDbSymbolTableRecord
100
AcDbBlockTableRecord
  2
*D59
340
0
 70
     0
280
     1
281
     0
  0
BLOCK_RECORD
  5
103D
330
1
100
AcDbSymbolTableRecord
100
AcDbBlockTableRecord
  2
*D60
340
0
 70
     0
280
     1
281
     0
  0
BLOCK_RECORD
  5
1055
330
1
100
AcDbSymbolTableRecord
100
AcDbBlockTableRecord
  2
*D61
340
0
 70
     0
280
     1
281
     0
  0
BLOCK_RECORD
  5
106D
330
1
100
AcDbSymbolTableRecord
100
AcDbBlockTableRecord
  2
*D62
340
0
 70
     0
280
     1
281
     0
  0
BLOCK_RECORD
  5
107D
330
1
100
AcDbSymbolTableRecord
100
AcDbBlockTableRecord
  2
*D63
340
0
 70
     0
280
     1
281
     0
  0
BLOCK_RECORD
  5
108D
330
1
100
AcDbSymbolTableRecord
100
AcDbBlockTableRecord
  2
*D64
340
0
 70
     0
280
     1
281
     0
  0
BLOCK_RECORD
  5
109D
330
1
100
AcDbSymbolTableRecord
100
AcDbBlockTableRecord
  2
*D65
340
0
 70
     0
280
     1
281
     0
  0
BLOCK_RECORD
  5
10AD
330
1
100
AcDbSymbolTableRecord
100
AcDbBlockTableRecord
  2
*D66
340
0
 70
     0
280
     1
281
     0
  0
BLOCK_RECORD
  5
10BD
330
1
100
AcDbSymbolTableRecord
100
AcDbBlockTableRecord
  2
*D67
340
0
 70
     0
280
     1
281
     0
  0
BLOCK_RECORD
  5
1110
330
1
100
AcDbSymbolTableRecord
100
AcDbBlockTableRecord
  2
*D68
340
0
 70
     0
280
     1
281
     0
  0
BLOCK_RECORD
  5
1128
330
1
100
AcDbSymbolTableRecord
100
AcDbBlockTableRecord
  2
*D69
340
0
 70
     0
280
     1
281
     0
  0
BLOCK_RECORD
  5
1140
330
1
100
AcDbSymbolTableRecord
100
AcDbBlockTableRecord
  2
*D70
340
0
 70
     0
280
     1
281
     0
  0
BLOCK_RECORD
  5
1158
330
1
100
AcDbSymbolTableRecord
100
AcDbBlockTableRecord
  2
*D71
340
0
 70
     0
280
     1
281
     0
  0
BLOCK_RECORD
  5
1170
330
1
100
AcDbSymbolTableRecord
100
AcDbBlockTableRecord
  2
*D72
340
0
 70
     0
280
     1
281
     0
  0
BLOCK_RECORD
  5
1180
330
1
100
AcDbSymbolTableRecord
100
AcDbBlockTableRecord
  2
*D73
340
0
 70
     0
280
     1
281
     0
  0
BLOCK_RECORD
  5
1190
330
1
100
AcDbSymbolTableRecord
100
AcDbBlockTableRecord
  2
*D74
340
0
 70
     0
280
     1
281
     0
  0
BLOCK_RECORD
  5
11A0
330
1
100
AcDbSymbolTableRecord
100
AcDbBlockTableRecord
  2
*D75
340
0
 70
     0
280
     1
281
     0
  0
BLOCK_RECORD
  5
11B0
330
1
100
AcDbSymbolTableRecord
100
AcDbBlockTableRecord
  2
*D76
340
0
 70
     0
280
     1
281
     0
  0
BLOCK_RECORD
  5
11C0
330
1
100
AcDbSymbolTableRecord
100
AcDbBlockTableRecord
  2
*D77
340
0
 70
     0
280
     1
281
     0
  0
BLOCK_RECORD
  5
11D0
330
1
100
AcDbSymbolTableRecord
100
AcDbBlockTableRecord
  2
*D78
340
0
 70
     0
280
     1
281
     0
  0
BLOCK_RECORD
  5
11E0
330
1
100
AcDbSymbolTableRecord
100
AcDbBlockTableRecord
  2
*D79
340
0
 70
     0
280
     1
281
     0
  0
BLOCK_RECORD
  5
11F1
330
1
100
AcDbSymbolTableRecord
100
AcDbBlockTableRecord
  2
*D80
340
0
 70
     0
280
     1
281
     0
  0
BLOCK_RECORD
  5
1201
330
1
100
AcDbSymbolTableRecord
100
AcDbBlockTableRecord
  2
*D81
340
0
 70
     0
280
     1
281
     0
  0
BLOCK_RECORD
  5
1223
330
1
100
AcDbSymbolTableRecord
100
AcDbBlockTableRecord
  2
*D82
340
0
 70
     0
280
     1
281
     0
  0
BLOCK_RECORD
  5
1232
330
1
100
AcDbSymbolTableRecord
100
AcDbBlockTableRecord
  2
*D83
340
0
 70
     0
280
     1
281
     0
  0
BLOCK_RECORD
  5
129A
102
{ACAD_XDICTIONARY
360
129C
102
}
330
1
100
AcDbSymbolTableRecord
100
AcDbBlockTableRecord
  2
A$C1647736A
340
0
 70
     1
280
     1
281
     0
  0
BLOCK_RECORD
  5
12AB
330
1
100
AcDbSymbolTableRecord
100
AcDbBlockTableRecord
  2
*D86
340
0
 70
     0
280
     1
281
     0
  0
ENDTAB
  0
ENDSEC
  0
SECTION
  2
BLOCKS
  0
BLOCK
  5
20
330
1F
100
AcDbEntity
  8
0
100
AcDbBlockBegin
  2
*Model_Space
 70
     0
 10
0.0
 20
0.0
 30
0.0
  3
*Model_Space
  1

  0
ENDBLK
  5
21
330
1F
100
AcDbEntity
  8
0
100
AcDbBlockEnd
  0
BLOCK
  5
52
330
50
100
AcDbEntity
 67
     1
  8
0
100
AcDbBlockBegin
  2
*Paper_Space
 70
     0
 10
0.0
 20
0.0
 30
0.0
  3
*Paper_Space
  1

  0
ENDBLK
  5
53
330
50
100
AcDbEntity
 67
     1
  8
0
100
AcDbBlockEnd
  0
BLOCK
  5
57
330
55
100
AcDbEntity
 67
     1
  8
0
100
AcDbBlockBegin
  2
*Paper_Space0
 70
     0
 10
0.0
 20
0.0
 30
0.0
  3
*Paper_Space0
  1

  0
ENDBLK
  5
58
330
55
100
AcDbEntity
 67
     1
  8
0
100
AcDbBlockEnd
  0
BLOCK
  5
11F
330
115
100
AcDbEntity
  8
0
100
AcDbBlockBegin
  2
*D1
 70
     1
 10
0.0
 20
0.0
 30
0.0
  3
*D1
  1

  0
LINE
  5
323
330
115
100
AcDbEntity
  8
0
 62
     0
370
    -2
100
AcDbLine
 10
506.474207956162
 20
572.6406292878257
 30
0.0
 11
506.474207956162
 21
419.5651089718102
 31
0.0
  0
LINE
  5
324
330
115
100
AcDbEntity
  8
0
 62
     0
370
    -2
100
AcDbLine
 10
1268.979406131287
 20
544.1431155216799
 30
0.0
 11
1268.979406131287
 21
419.5651089718102
 31
0.0
  0
LINE
  5
325
330
115
100
AcDbEntity
  8
0
 62
     0
370
    -2
100
AcDbLine
 10
521.4742079561618
 20
420.8151089718103
 30
0.0
 11
1253.979406131287
 21
420.8151089718103
 31
0.0
  0
SOLID
  5
326
330
115
100
AcDbEntity
  8
0
 62
     0
100
AcDbTrace
 10
521.4742079561618
 20
423.3151089718102
 30
0.0
 11
521.4742079561618
 21
418.3151089718102
 31
0.0
 12
506.474207956162
 22
420.8151089718103
 32
0.0
 13
506.474207956162
 23
420.8151089718103
 33
0.0
  0
SOLID
  5
327
330
115
100
AcDbEntity
  8
0
 62
     0
100
AcDbTrace
 10
1253.979406131287
 20
423.3151089718102
 30
0.0
 11
1253.979406131287
 21
418.3151089718102
 31
0.0
 12
1268.979406131287
 22
420.8151089718103
 32
0.0
 13
1268.979406131287
 23
420.8151089718103
 33
0.0
  0
MTEXT
  5
328
330
115
100
AcDbEntity
  8
0
 62
     0
100
AcDbMText
 10
887.7268070437246
 20
430.3151089718102
 30
0.0
 40
15.0
 41
0.0
 46
0.0
 71
     5
 72
     1
  1
762.5
 73
     1
 44
1.0
1001
ACAD
1000
MTEXTBEGIN
1070
    73
1070
     1
1070
    44
1040
1.0
1070
    74
1070
     0
1000
MTEXTEND
  0
POINT
  5
329
330
115
100
AcDbEntity
  8
Defpoints
 62
     0
100
AcDbPoint
 10
506.474207956162
 20
573.2656292878257
 30
0.0
  0
POINT
  5
32A
330
115
100
AcDbEntity
  8
Defpoints
 62
     0
100
AcDbPoint
 10
1268.979406131287
 20
544.7681155216798
 30
0.0
  0
POINT
  5
32B
330
115
100
AcDbEntity
  8
Defpoints
 62
     0
100
AcDbPoint
 10
1268.979406131287
 20
420.8151089718103
 30
0.0
  0
ENDBLK
  5
120
330
115
100
AcDbEntity
  8
0
100
AcDbBlockEnd
  0
BLOCK
  5
15F
330
155
100
AcDbEntity
  8
0
100
AcDbBlockBegin
  2
*D2
 70
     1
 10
0.0
 20
0.0
 30
0.0
  3
*D2
  1

  0
LINE
  5
370
330
155
100
AcDbEntity
  8
0
 62
     0
370
    -2
100
AcDbLine
 10
1194.604406131287
 20
875.7681155216804
 30
0.0
 11
1336.215637625145
 21
875.7681155216802
 31
0.0
  0
LINE
  5
371
330
155
100
AcDbEntity
  8
0
 62
     0
370
    -2
100
AcDbLine
 10
1194.604406131287
 20
469.7681155216797
 30
0.0
 11
1336.215637625145
 21
469.7681155216797
 31
0.0
  0
LINE
  5
372
330
155
100
AcDbEntity
  8
0
 62
     0
370
    -2
100
AcDbLine
 10
1334.965637625145
 20
860.7681155216804
 30
0.0
 11
1334.965637625145
 21
484.7681155216798
 31
0.0
  0
SOLID
  5
373
330
155
100
AcDbEntity
  8
0
 62
     0
100
AcDbTrace
 10
1332.465637625145
 20
860.7681155216804
 30
0.0
 11
1337.465637625145
 21
860.7681155216804
 31
0.0
 12
1334.965637625145
 22
875.7681155216802
 32
0.0
 13
1334.965637625145
 23
875.7681155216802
 33
0.0
  0
SOLID
  5
374
330
155
100
AcDbEntity
  8
0
 62
     0
100
AcDbTrace
 10
1332.465637625145
 20
484.7681155216798
 30
0.0
 11
1337.465637625145
 21
484.7681155216798
 31
0.0
 12
1334.965637625145
 22
469.7681155216797
 32
0.0
 13
1334.965637625145
 23
469.7681155216797
 33
0.0
  0
MTEXT
  5
375
330
155
100
AcDbEntity
  8
0
 62
     0
100
AcDbMText
 10
1325.465637625145
 20
672.7681155216802
 30
0.0
 40
15.0
 41
0.0
 46
0.0
 71
     5
 72
     1
  1
406
 11
0.0000000000000001
 21
1.0
 31
0.0
 73
     1
 44
1.0
1001
ACAD
1000
MTEXTBEGIN
1070
    73
1070
     1
1070
    44
1040
1.0
1070
    74
1070
     0
1000
MTEXTEND
  0
POINT
  5
376
330
155
100
AcDbEntity
  8
Defpoints
 62
     0
100
AcDbPoint
 10
1193.979406131287
 20
875.7681155216804
 30
0.0
  0
POINT
  5
377
330
155
100
AcDbEntity
  8
Defpoints
 62
     0
100
AcDbPoint
 10
1193.979406131287
 20
469.7681155216797
 30
0.0
  0
POINT
  5
378
330
155
100
AcDbEntity
  8
Defpoints
 62
     0
100
AcDbPoint
 10
1334.965637625145
 20
469.7681155216797
 30
0.0
  0
ENDBLK
  5
160
330
155
100
AcDbEntity
  8
0
100
AcDbBlockEnd
  0
BLOCK
  5
1CA
330
1C4
100
AcDbEntity
  8
0
100
AcDbBlockBegin
  2
*D3
 70
     1
 10
0.0
 20
0.0
 30
0.0
  3
*D3
  1

  0
LINE
  5
223
330
1C4
100
AcDbEntity
  8
0
 62
     0
370
    -2
100
AcDbLine
 10
591.4065173157281
 20
555.0778231391813
 30
0.0
 11
545.6723949181887
 21
510.307408259186
 31
0.0
  0
MTEXT
  5
224
330
1C4
100
AcDbEntity
  8
0
 62
     0
100
AcDbMText
 10
567.2533151266707
 20
544.7278074863179
 30
0.0
 40
15.0
 41
0.0
 46
0.0
 71
     5
 72
     1
  1
R100
 11
0.7145956624615519
 21
0.6995377324999245
 31
0.0
 73
     1
 44
1.0
1001
ACAD
1000
MTEXTBEGIN
1070
    73
1070
     1
1070
    44
1040
1.0
1070
    74
1070
     0
1000
MTEXTEND
  0
SOLID
  5
225
330
1C4
100
AcDbEntity
  8
0
 62
     0
100
AcDbTrace
 10
543.9235505869389
 20
512.09389741534
 30
0.0
 11
547.4212392494385
 21
508.5209191030322
 31
0.0
 12
534.9534599812654
 22
499.8143422716871
 32
0.0
 13
534.9534599812654
 23
499.8143422716871
 33
0.0
  0
POINT
  5
226
330
1C4
100
AcDbEntity
  8
Defpoints
 62
     0
100
AcDbPoint
 10
534.9534599812654
 20
499.8143422716871
 30
0.0
  0
POINT
  5
227
330
1C4
100
AcDbEntity
  8
Defpoints
 62
     0
100
AcDbPoint
 10
606.4130262274186
 20
569.7681155216776
 30
0.0
  0
ENDBLK
  5
1CB
330
1C4
100
AcDbEntity
  8
0
100
AcDbBlockEnd
  0
BLOCK
  5
1DA
330
1D4
100
AcDbEntity
  8
0
100
AcDbBlockBegin
  2
*D4
 70
     1
 10
0.0
 20
0.0
 30
0.0
  3
*D4
  1

  0
LINE
  5
23C
330
1D4
100
AcDbEntity
  8
0
 62
     0
370
    -2
100
AcDbLine
 10
1194.761954557013
 20
544.1455258001183
 30
0.0
 11
1240.932311674893
 21
507.4127322280601
 31
0.0
  0
MTEXT
  5
23D
330
1D4
100
AcDbEntity
  8
0
 62
     0
100
AcDbMText
 10
1217.892622277825
 20
537.882761970196
 30
0.0
 40
15.0
 41
0.0
 46
0.0
 71
     5
 72
     1
  1
R75
 11
0.7825484257267794
 21
-0.6225897215603062
 31
0.0
 73
     1
 44
1.0
1001
ACAD
1000
MTEXTBEGIN
1070
    73
1070
     1
1070
    44
1040
1.0
1070
    74
1070
     0
1000
MTEXTEND
  0
SOLID
  5
23E
330
1D4
100
AcDbEntity
  8
0
 62
     0
100
AcDbTrace
 10
1242.488785978793
 20
509.3691032923771
 30
0.0
 11
1239.375837370992
 21
505.4563611637433
 31
0.0
 12
1252.670538060794
 22
498.0738864046555
 32
0.0
 13
1252.670538060794
 23
498.0738864046555
 33
0.0
  0
POINT
  5
23F
330
1D4
100
AcDbEntity
  8
Defpoints
 62
     0
100
AcDbPoint
 10
1252.670538060794
 20
498.0738864046555
 30
0.0
  0
POINT
  5
240
330
1D4
100
AcDbEntity
  8
Defpoints
 62
     0
100
AcDbPoint
 10
1193.979406131285
 20
544.7681155216788
 30
0.0
  0
ENDBLK
  5
1DB
330
1D4
100
AcDbEntity
  8
0
100
AcDbBlockEnd
  0
BLOCK
  5
1EA
330
1E4
100
AcDbEntity
  8
0
100
AcDbBlockBegin
  2
*D5
 70
     1
 10
0.0
 20
0.0
 30
0.0
  3
*D5
  1

  0
LINE
  5
228
330
1E4
100
AcDbEntity
  8
0
 62
     0
370
    -2
100
AcDbLine
 10
606.2568577129114
 20
804.6197784161936
 30
0.0
 11
547.6597165708422
 21
836.0621868795481
 31
0.0
  0
MTEXT
  5
229
330
1E4
100
AcDbEntity
  8
0
 62
     0
100
AcDbMText
 10
588.0587599083037
 20
825.1658665181642
 30
0.0
 40
15.0
 41
0.0
 46
0.0
 71
     5
 72
     1
  1
R180
 11
0.8811600171739723
 21
-0.4728181723812708
 31
0.0
 73
     1
 44
1.0
1001
ACAD
1000
MTEXTBEGIN
1070
    73
1070
     1
1070
    44
1040
1.0
1070
    74
1070
     0
1000
MTEXTEND
  0
SOLID
  5
22A
330
1E4
100
AcDbEntity
  8
0
 62
     0
100
AcDbTrace
 10
548.8417620017957
 20
838.265086922483
 30
0.0
 11
546.4776711398891
 21
833.8592868366133
 31
0.0
 12
534.4423163132328
 22
843.154459465267
 32
0.0
 13
534.4423163132328
 23
843.154459465267
 33
0.0
  0
POINT
  5
22B
330
1E4
100
AcDbEntity
  8
Defpoints
 62
     0
100
AcDbPoint
 10
534.4423163132328
 20
843.154459465267
 30
0.0
  0
POINT
  5
22C
330
1E4
100
AcDbEntity
  8
Defpoints
 62
     0
100
AcDbPoint
 10
693.0511194045488
 20
758.0471884366378
 30
0.0
  0
ENDBLK
  5
1EB
330
1E4
100
AcDbEntity
  8
0
100
AcDbBlockEnd
  0
BLOCK
  5
1FA
330
1F4
100
AcDbEntity
  8
0
100
AcDbBlockBegin
  2
*D6
 70
     1
 10
0.0
 20
0.0
 30
0.0
  3
*D6
  1

  0
LINE
  5
3D6
330
1F4
100
AcDbEntity
  8
0
 62
     0
370
    -2
100
AcDbLine
 10
774.1192045083454
 20
845.8345269194829
 30
0.0
 11
773.5908453724849
 21
934.832958572089
 31
0.0
  0
MTEXT
  5
3D7
330
1F4
100
AcDbEntity
  8
0
 62
     0
100
AcDbMText
 10
783.4513275994879
 20
874.1404269866379
 30
0.0
 40
15.0
 41
0.0
 46
0.0
 71
     5
 72
     1
  1
R480
 11
0.0059366195040533
 21
-0.9999823781191668
 31
0.0
 73
     1
 44
1.0
1001
ACAD
1000
MTEXTBEGIN
1070
    73
1070
     1
1070
    44
1040
1.0
1070
    74
1070
     0
1000
MTEXTEND
  0
SOLID
  5
3D8
330
1F4
100
AcDbEntity
  8
0
 62
     0
100
AcDbTrace
 10
776.0908013177827
 20
934.8478001208492
 30
0.0
 11
771.0908894271868
 21
934.8181170233287
 31
0.0
 12
773.501796079924
 22
949.8326942438763
 32
0.0
 13
773.501796079924
 23
949.8326942438763
 33
0.0
  0
POINT
  5
3D9
330
1F4
100
AcDbEntity
  8
Defpoints
 62
     0
100
AcDbPoint
 10
773.501796079924
 20
949.8326942438763
 30
0.0
  0
POINT
  5
3DA
330
1F4
100
AcDbEntity
  8
Defpoints
 62
     0
100
AcDbPoint
 10
776.3518070437251
 20
469.7681155216796
 30
0.0
  0
ENDBLK
  5
1FB
330
1F4
100
AcDbEntity
  8
0
100
AcDbBlockEnd
  0
BLOCK
  5
20A
330
204
100
AcDbEntity
  8
0
100
AcDbBlockBegin
  2
*D7
 70
     1
 10
0.0
 20
0.0
 30
0.0
  3
*D7
  1

  0
LINE
  5
232
330
204
100
AcDbEntity
  8
0
 62
     0
370
    -2
100
AcDbLine
 10
908.7602961049569
 20
829.995367401
 30
0.0
 11
952.6705888116897
 21
894.3286404565217
 31
0.0
  0
MTEXT
  5
233
330
204
100
AcDbEntity
  8
0
 62
     0
100
AcDbMText
 10
915.4302484057293
 20
856.6191206357606
 30
0.0
 40
15.0
 41
0.0
 46
0.0
 71
     5
 72
     1
  1
R180
 11
0.5637460250229676
 21
0.8259481940598959
 31
0.0
 73
     1
 44
1.0
1001
ACAD
1000
MTEXTBEGIN
1070
    73
1070
     1
1070
    44
1040
1.0
1070
    74
1070
     0
1000
MTEXTEND
  0
SOLID
  5
234
330
204
100
AcDbEntity
  8
0
 62
     0
100
AcDbTrace
 10
950.6057183265401
 20
895.7380055190791
 30
0.0
 11
954.7354592968394
 21
892.9192753939641
 31
0.0
 12
961.1267791870343
 22
906.7178633674203
 32
0.0
 13
961.1267791870343
 23
906.7178633674203
 33
0.0
  0
POINT
  5
235
330
204
100
AcDbEntity
  8
Defpoints
 62
     0
100
AcDbPoint
 10
961.1267791870343
 20
906.7178633674203
 30
0.0
  0
POINT
  5
236
330
204
100
AcDbEntity
  8
Defpoints
 62
     0
100
AcDbPoint
 10
859.6524946828989
 20
758.0471884366371
 30
0.0
  0
ENDBLK
  5
20B
330
204
100
AcDbEntity
  8
0
100
AcDbBlockEnd
  0
BLOCK
  5
21A
330
214
100
AcDbEntity
  8
0
100
AcDbBlockBegin
  2
*D8
 70
     1
 10
0.0
 20
0.0
 30
0.0
  3
*D8
  1

  0
LINE
  5
237
330
214
100
AcDbEntity
  8
0
 62
     0
370
    -2
100
AcDbLine
 10
1194.719346288212
 20
801.4407882237952
 30
0.0
 11
1238.375815546783
 21
841.1284776485446
 31
0.0
  0
MTEXT
  5
238
330
214
100
AcDbEntity
  8
0
 62
     0
100
AcDbMText
 10
1204.607639070474
 20
823.269019161099
 30
0.0
 40
15.0
 41
0.0
 46
0.0
 71
     5
 72
     1
  1
R75
 11
0.7399401569249449
 21
0.6726727021143998
 31
0.0
 73
     1
 44
1.0
1001
ACAD
1000
MTEXTBEGIN
1070
    73
1070
     1
1070
    44
1040
1.0
1070
    74
1070
     0
1000
MTEXTEND
  0
SOLID
  5
239
330
214
100
AcDbEntity
  8
0
 62
     0
100
AcDbTrace
 10
1236.694133791497
 20
842.9783280408569
 30
0.0
 11
1240.057497302069
 21
839.2786272562323
 31
0.0
 12
1249.474917900658
 22
851.2185681802607
 32
0.0
 13
1249.474917900658
 23
851.2185681802607
 33
0.0
  0
POINT
  5
23A
330
214
100
AcDbEntity
  8
Defpoints
 62
     0
100
AcDbPoint
 10
1249.474917900658
 20
851.2185681802607
 30
0.0
  0
POINT
  5
23B
330
214
100
AcDbEntity
  8
Defpoints
 62
     0
100
AcDbPoint
 10
1193.979406131285
 20
800.7681155216792
 30
0.0
  0
ENDBLK
  5
21B
330
214
100
AcDbEntity
  8
0
100
AcDbBlockEnd
  0
BLOCK
  5
24C
330
242
100
AcDbEntity
  8
0
100
AcDbBlockBegin
  2
*D9
 70
     1
 10
0.0
 20
0.0
 30
0.0
  3
*D9
  1

  0
LINE
  5
335
330
242
100
AcDbEntity
  8
0
 62
     0
370
    -2
100
AcDbLine
 10
995.8207117022853
 20
876.3931155216804
 30
0.0
 11
995.8207117022853
 21
922.1311074438927
 31
0.0
  0
LINE
  5
336
330
242
100
AcDbEntity
  8
0
 62
     0
370
    -2
100
AcDbLine
 10
1268.979406131287
 20
801.3931155216804
 30
0.0
 11
1268.979406131287
 21
922.1311074438927
 31
0.0
  0
LINE
  5
337
330
242
100
AcDbEntity
  8
0
 62
     0
370
    -2
100
AcDbLine
 10
1010.820711702285
 20
920.8811074438926
 30
0.0
 11
1253.979406131287
 21
920.8811074438926
 31
0.0
  0
SOLID
  5
338
330
242
100
AcDbEntity
  8
0
 62
     0
100
AcDbTrace
 10
1010.820711702285
 20
923.3811074438929
 30
0.0
 11
1010.820711702285
 21
918.3811074438926
 31
0.0
 12
995.8207117022853
 22
920.8811074438926
 32
0.0
 13
995.8207117022853
 23
920.8811074438926
 33
0.0
  0
SOLID
  5
339
330
242
100
AcDbEntity
  8
0
 62
     0
100
AcDbTrace
 10
1253.979406131287
 20
923.3811074438929
 30
0.0
 11
1253.979406131287
 21
918.3811074438926
 31
0.0
 12
1268.979406131287
 22
920.8811074438926
 32
0.0
 13
1268.979406131287
 23
920.8811074438926
 33
0.0
  0
MTEXT
  5
33A
330
242
100
AcDbEntity
  8
0
 62
     0
100
AcDbMText
 10
1132.400058916786
 20
930.3811074438927
 30
0.0
 40
15.0
 41
0.0
 46
0.0
 71
     5
 72
     1
  1
273.2
 73
     1
 44
1.0
1001
ACAD
1000
MTEXTBEGIN
1070
    73
1070
     1
1070
    44
1040
1.0
1070
    74
1070
     0
1000
MTEXTEND
  0
POINT
  5
33B
330
242
100
AcDbEntity
  8
Defpoints
 62
     0
100
AcDbPoint
 10
995.8207117022853
 20
875.7681155216804
 30
0.0
  0
POINT
  5
33C
330
242
100
AcDbEntity
  8
Defpoints
 62
     0
100
AcDbPoint
 10
1268.979406131287
 20
800.7681155216804
 30
0.0
  0
POINT
  5
33D
330
242
100
AcDbEntity
  8
Defpoints
 62
     0
100
AcDbPoint
 10
1268.979406131287
 20
920.8811074438926
 30
0.0
  0
ENDBLK
  5
24D
330
242
100
AcDbEntity
  8
0
100
AcDbBlockEnd
  0
BLOCK
  5
26F
330
265
100
AcDbEntity
  8
0
100
AcDbBlockBegin
  2
*D10
 70
     1
 10
0.0
 20
0.0
 30
0.0
  3
*D10
  1

  0
ARC
  5
285
330
265
100
AcDbEntity
  8
0
 62
     0
370
    -2
100
AcDbCircle
 10
502.8521521282022
 20
469.7681155216796
 30
0.0
 40
155.1514763190064
100
AcDbArc
 50
5.541499050703527
 51
82.45416439414638
  0
SOLID
  5
286
330
265
100
AcDbEntity
  8
0
 62
     0
100
AcDbTrace
 10
659.7756079740366
 20
484.8714293486683
 30
0.0
 11
654.7814532449145
 21
484.6297300694239
 31
0.0
 12
658.0036284472088
 22
469.7681155216796
 32
0.0
 13
658.0036284472088
 23
469.7681155216796
 33
0.0
  0
SOLID
  5
287
330
265
100
AcDbEntity
  8
0
 62
     0
100
AcDbTrace
 10
523.0184223046125
 20
621.0846766508252
 30
0.0
 11
523.4346449572133
 21
626.0673224041838
 31
0.0
 12
508.2785963708372
 22
624.8246674853064
 32
0.0
 13
508.2785963708372
 23
624.8246674853064
 33
0.0
  0
MTEXT
  5
288
330
265
100
AcDbEntity
  8
0
 62
     0
100
AcDbMText
 10
621.2968405617067
 20
584.1401594656365
 30
0.0
 40
15.0
 41
0.0
 46
0.0
 71
     5
 72
     1
  1
88°
 11
0.6946311475662982
 21
-0.7193660881850965
 31
0.0
 73
     1
 44
1.0
1001
ACAD
1000
MTEXTBEGIN
1070
    73
1070
     1
1070
    44
1040
1.0
1070
    74
1070
     0
1000
MTEXTEND
  0
POINT
  5
289
330
265
100
AcDbEntity
  8
Defpoints
 62
     0
100
AcDbPoint
 10
638.1127084897569
 20
545.7718160679686
 30
0.0
  0
POINT
  5
28A
330
265
100
AcDbEntity
  8
Defpoints
 62
     0
100
AcDbPoint
 10
506.4742079561631
 20
573.2656292878257
 30
0.0
  0
POINT
  5
28B
330
265
100
AcDbEntity
  8
Defpoints
 62
     0
100
AcDbPoint
 10
606.4130262274203
 20
469.7681155216797
 30
0.0
  0
POINT
  5
28C
330
265
100
AcDbEntity
  8
Defpoints
 62
     0
100
AcDbPoint
 10
1152.979406131287
 20
469.7681155216797
 30
0.0
  0
POINT
  5
28D
330
265
100
AcDbEntity
  8
Defpoints
 62
     0
100
AcDbPoint
 10
513.1612465162826
 20
764.3427132157008
 30
0.0
  0
ENDBLK
  5
270
330
265
100
AcDbEntity
  8
0
100
AcDbBlockEnd
  0
BLOCK
  5
349
330
33F
100
AcDbEntity
  8
0
100
AcDbBlockBegin
  2
*D11
 70
     1
 10
0.0
 20
0.0
 30
0.0
  3
*D11
  1

  0
LINE
  5
34C
330
33F
100
AcDbEntity
  8
图层2
 62
     0
370
    -2
100
AcDbLine
 10
499.4784906771738
 20
572.8854552514558
 30
0.0
 11
499.4784906771738
 21
382.2019276068263
 31
0.0
  0
LINE
  5
34D
330
33F
100
AcDbEntity
  8
图层2
 62
     0
370
    -2
100
AcDbLine
 10
1275.979406131287
 20
544.1431155216799
 30
0.0
 11
1275.979406131287
 21
382.2019276068263
 31
0.0
  0
LINE
  5
34E
330
33F
100
AcDbEntity
  8
图层2
 62
     0
370
    -2
100
AcDbLine
 10
514.4784906771738
 20
383.4519276068263
 30
0.0
 11
1260.979406131287
 21
383.4519276068263
 31
0.0
  0
SOLID
  5
34F
330
33F
100
AcDbEntity
  8
图层2
 62
     0
100
AcDbTrace
 10
514.4784906771738
 20
385.9519276068263
 30
0.0
 11
514.4784906771738
 21
380.9519276068263
 31
0.0
 12
499.4784906771738
 22
383.4519276068263
 32
0.0
 13
499.4784906771738
 23
383.4519276068263
 33
0.0
  0
SOLID
  5
350
330
33F
100
AcDbEntity
  8
图层2
 62
     0
100
AcDbTrace
 10
1260.979406131287
 20
385.9519276068263
 30
0.0
 11
1260.979406131287
 21
380.9519276068263
 31
0.0
 12
1275.979406131287
 22
383.4519276068263
 32
0.0
 13
1275.979406131287
 23
383.4519276068263
 33
0.0
  0
MTEXT
  5
351
330
33F
100
AcDbEntity
  8
图层2
 62
     0
100
AcDbMText
 10
887.7289484042306
 20
394.2019276068263
 30
0.0
 40
15.0
 41
0.0
 46
0.0
 71
     5
 72
     1
  1
776,5
 73
     1
 44
1.0
1001
ACAD
1000
MTEXTBEGIN
1070
    73
1070
     1
1070
    44
1040
1.0
1070
    74
1070
     0
1000
MTEXTEND
  0
POINT
  5
352
330
33F
100
AcDbEntity
  8
Defpoints
 62
     0
100
AcDbPoint
 10
499.4784906771738
 20
573.5104552514558
 30
0.0
  0
POINT
  5
353
330
33F
100
AcDbEntity
  8
Defpoints
 62
     0
100
AcDbPoint
 10
1275.979406131287
 20
544.7681155216798
 30
0.0
  0
POINT
  5
354
330
33F
100
AcDbEntity
  8
Defpoints
 62
     0
100
AcDbPoint
 10
1275.979406131287
 20
383.4519276068263
 30
0.0
  0
ENDBLK
  5
34A
330
33F
100
AcDbEntity
  8
0
100
AcDbBlockEnd
  0
BLOCK
  5
363
330
359
100
AcDbEntity
  8
0
100
AcDbBlockBegin
  2
*D12
 70
     1
 10
0.0
 20
0.0
 30
0.0
  3
*D12
  1

  0
LINE
  5
366
330
359
100
AcDbEntity
  8
图层2
 62
     0
370
    -2
100
AcDbLine
 10
1194.604406131287
 20
882.7681155216804
 30
0.0
 11
1396.042477382514
 21
882.7681155216803
 31
0.0
  0
LINE
  5
367
330
359
100
AcDbEntity
  8
图层2
 62
     0
370
    -2
100
AcDbLine
 10
1194.604406131287
 20
462.76811552168
 30
0.0
 11
1396.042477382514
 21
462.76811552168
 31
0.0
  0
LINE
  5
368
330
359
100
AcDbEntity
  8
图层2
 62
     0
370
    -2
100
AcDbLine
 10
1394.792477382514
 20
867.7681155216802
 30
0.0
 11
1394.792477382514
 21
477.7681155216797
 31
0.0
  0
SOLID
  5
369
330
359
100
AcDbEntity
  8
图层2
 62
     0
100
AcDbTrace
 10
1392.292477382514
 20
867.7681155216802
 30
0.0
 11
1397.292477382514
 21
867.7681155216802
 31
0.0
 12
1394.792477382514
 22
882.7681155216803
 32
0.0
 13
1394.792477382514
 23
882.7681155216803
 33
0.0
  0
SOLID
  5
36A
330
359
100
AcDbEntity
  8
图层2
 62
     0
100
AcDbTrace
 10
1392.292477382514
 20
477.7681155216797
 30
0.0
 11
1397.292477382514
 21
477.7681155216797
 31
0.0
 12
1394.792477382514
 22
462.76811552168
 32
0.0
 13
1394.792477382514
 23
462.76811552168
 33
0.0
  0
MTEXT
  5
36B
330
359
100
AcDbEntity
  8
图层2
 62
     0
100
AcDbMText
 10
1385.292477382514
 20
672.7681155216802
 30
0.0
 40
15.0
 41
0.0
 46
0.0
 71
     5
 72
     1
  1
420
 11
0.0000000000000001
 21
1.0
 31
0.0
 73
     1
 44
1.0
1001
ACAD
1000
MTEXTBEGIN
1070
    73
1070
     1
1070
    44
1040
1.0
1070
    74
1070
     0
1000
MTEXTEND
  0
POINT
  5
36C
330
359
100
AcDbEntity
  8
Defpoints
 62
     0
100
AcDbPoint
 10
1193.979406131287
 20
882.7681155216804
 30
0.0
  0
POINT
  5
36D
330
359
100
AcDbEntity
  8
Defpoints
 62
     0
100
AcDbPoint
 10
1193.979406131287
 20
462.76811552168
 30
0.0
  0
POINT
  5
36E
330
359
100
AcDbEntity
  8
Defpoints
 62
     0
100
AcDbPoint
 10
1394.792477382514
 20
462.76811552168
 30
0.0
  0
ENDBLK
  5
364
330
359
100
AcDbEntity
  8
0
100
AcDbBlockEnd
  0
BLOCK
  5
389
330
37F
100
AcDbEntity
  8
0
100
AcDbBlockBegin
  2
*D13
 70
     1
 10
0.0
 20
0.0
 30
0.0
  3
*D13
  1

  0
LINE
  5
430
330
37F
100
AcDbEntity
  8
图层2
 62
     0
370
    -2
100
AcDbLine
 10
775.7268070437248
 20
949.8411540337524
 30
0.0
 11
466.5087994057213
 21
949.8411540337526
 31
0.0
  0
LINE
  5
431
330
37F
100
AcDbEntity
  8
图层2
 62
     0
370
    -2
100
AcDbLine
 10
605.7880262274203
 20
469.7681155216797
 30
0.0
 11
466.5087994057212
 21
469.7681155216797
 31
0.0
  0
LINE
  5
432
330
37F
100
AcDbEntity
  8
图层2
 62
     0
370
    -2
100
AcDbLine
 10
467.7587994057212
 20
934.8411540337526
 30
0.0
 11
467.7587994057212
 21
484.7681155216798
 31
0.0
  0
SOLID
  5
433
330
37F
100
AcDbEntity
  8
图层2
 62
     0
100
AcDbTrace
 10
465.2587994057213
 20
934.8411540337526
 30
0.0
 11
470.2587994057212
 21
934.8411540337526
 31
0.0
 12
467.7587994057212
 22
949.8411540337526
 32
0.0
 13
467.7587994057212
 23
949.8411540337526
 33
0.0
  0
SOLID
  5
434
330
37F
100
AcDbEntity
  8
图层2
 62
     0
100
AcDbTrace
 10
465.2587994057212
 20
484.7681155216798
 30
0.0
 11
470.2587994057211
 21
484.7681155216798
 31
0.0
 12
467.7587994057212
 22
469.7681155216797
 32
0.0
 13
467.7587994057212
 23
469.7681155216797
 33
0.0
  0
MTEXT
  5
435
330
37F
100
AcDbEntity
  8
图层2
 62
     0
100
AcDbMText
 10
458.258799405721
 20
709.8046347777162
 30
0.0
 40
15.0
 41
0.0
 46
0.0
 71
     5
 72
     1
  1
480
 11
0.0000000000000001
 21
1.0
 31
0.0
 73
     1
 44
1.0
1001
ACAD
1000
MTEXTBEGIN
1070
    73
1070
     1
1070
    44
1040
1.0
1070
    74
1070
     0
1000
MTEXTEND
  0
POINT
  5
436
330
37F
100
AcDbEntity
  8
Defpoints
 62
     0
100
AcDbPoint
 10
776.3518070437249
 20
949.8411540337524
 30
0.0
  0
POINT
  5
437
330
37F
100
AcDbEntity
  8
Defpoints
 62
     0
100
AcDbPoint
 10
606.4130262274203
 20
469.7681155216797
 30
0.0
  0
POINT
  5
438
330
37F
100
AcDbEntity
  8
Defpoints
 62
     0
100
AcDbPoint
 10
467.7587994057212
 20
469.7681155216797
 30
0.0
  0
ENDBLK
  5
38A
330
37F
100
AcDbEntity
  8
0
100
AcDbBlockEnd
  0
BLOCK
  5
3A1
330
397
100
AcDbEntity
  8
0
100
AcDbBlockBegin
  2
*D14
 70
     1
 10
0.0
 20
0.0
 30
0.0
  3
*D14
  1

  0
LINE
  5
3B7
330
397
100
AcDbEntity
  8
图层2
 62
     0
370
    -2
100
AcDbLine
 10
775.7268070437248
 20
956.8411540337525
 30
0.0
 11
421.4847720444542
 21
956.8411540337525
 31
0.0
  0
LINE
  5
3B8
330
397
100
AcDbEntity
  8
图层2
 62
     0
370
    -2
100
AcDbLine
 10
819.8400487586859
 20
462.7681155216798
 30
0.0
 11
421.4847720444541
 21
462.7681155216798
 31
0.0
  0
LINE
  5
3B9
330
397
100
AcDbEntity
  8
图层2
 62
     0
370
    -2
100
AcDbLine
 10
422.7347720444542
 20
941.8411540337526
 30
0.0
 11
422.7347720444539
 21
477.7681155216797
 31
0.0
  0
SOLID
  5
3BA
330
397
100
AcDbEntity
  8
图层2
 62
     0
100
AcDbTrace
 10
420.234772044454
 20
941.8411540337526
 30
0.0
 11
425.2347720444541
 21
941.8411540337526
 31
0.0
 12
422.7347720444542
 22
956.8411540337525
 32
0.0
 13
422.7347720444542
 23
956.8411540337525
 33
0.0
  0
SOLID
  5
3BB
330
397
100
AcDbEntity
  8
图层2
 62
     0
100
AcDbTrace
 10
420.234772044454
 20
477.7681155216797
 30
0.0
 11
425.2347720444539
 21
477.7681155216797
 31
0.0
 12
422.7347720444539
 22
462.7681155216798
 32
0.0
 13
422.7347720444539
 23
462.7681155216798
 33
0.0
  0
MTEXT
  5
3BC
330
397
100
AcDbEntity
  8
图层2
 62
     0
100
AcDbMText
 10
413.2347720444539
 20
709.8046347777162
 30
0.0
 40
15.0
 41
0.0
 46
0.0
 71
     5
 72
     1
  1
494
 11
0.0000000000000001
 21
1.0
 31
0.0
 73
     1
 44
1.0
1001
ACAD
1000
MTEXTBEGIN
1070
    73
1070
     1
1070
    44
1040
1.0
1070
    74
1070
     0
1000
MTEXTEND
  0
POINT
  5
3BD
330
397
100
AcDbEntity
  8
Defpoints
 62
     0
100
AcDbPoint
 10
776.3518070437249
 20
956.8411540337525
 30
0.0
  0
POINT
  5
3BE
330
397
100
AcDbEntity
  8
Defpoints
 62
     0
100
AcDbPoint
 10
820.4650487586857
 20
462.7681155216798
 30
0.0
  0
POINT
  5
3BF
330
397
100
AcDbEntity
  8
Defpoints
 62
     0
100
AcDbPoint
 10
422.7347720444539
 20
462.7681155216798
 30
0.0
  0
ENDBLK
  5
3A2
330
397
100
AcDbEntity
  8
0
100
AcDbBlockEnd
  0
BLOCK
  5
407
330
3FD
100
AcDbEntity
  8
0
100
AcDbBlockBegin
  2
*D15
 70
     1
 10
0.0
 20
0.0
 30
0.0
  3
*D15
  1

  0
LINE
  5
414
330
3FD
100
AcDbEntity
  8
图层2
 62
     0
370
    -2
100
AcDbLine
 10
998.9855142692412
 20
883.3931155216806
 30
0.0
 11
998.9855142692412
 21
963.1436453756855
 31
0.0
  0
LINE
  5
415
330
3FD
100
AcDbEntity
  8
图层2
 62
     0
370
    -2
100
AcDbLine
 10
1275.979406131287
 20
801.3931155216804
 30
0.0
 11
1275.979406131287
 21
963.1436453756855
 31
0.0
  0
LINE
  5
416
330
3FD
100
AcDbEntity
  8
图层2
 62
     0
370
    -2
100
AcDbLine
 10
1013.985514269241
 20
961.8936453756855
 30
0.0
 11
1260.979406131287
 21
961.8936453756855
 31
0.0
  0
SOLID
  5
417
330
3FD
100
AcDbEntity
  8
图层2
 62
     0
100
AcDbTrace
 10
1013.985514269241
 20
964.3936453756856
 30
0.0
 11
1013.985514269241
 21
959.3936453756855
 31
0.0
 12
998.9855142692412
 22
961.8936453756855
 32
0.0
 13
998.9855142692412
 23
961.8936453756855
 33
0.0
  0
SOLID
  5
418
330
3FD
100
AcDbEntity
  8
图层2
 62
     0
100
AcDbTrace
 10
1260.979406131287
 20
964.3936453756856
 30
0.0
 11
1260.979406131287
 21
959.3936453756855
 31
0.0
 12
1275.979406131287
 22
961.8936453756855
 32
0.0
 13
1275.979406131287
 23
961.8936453756855
 33
0.0
  0
MTEXT
  5
419
330
3FD
100
AcDbEntity
  8
图层2
 62
     0
100
AcDbMText
 10
1137.482460200264
 20
971.3936453756856
 30
0.0
 40
15.0
 41
0.0
 46
0.0
 71
     5
 72
     1
  1
277
 73
     1
 44
1.0
1001
ACAD
1000
MTEXTBEGIN
1070
    73
1070
     1
1070
    44
1040
1.0
1070
    74
1070
     0
1000
MTEXTEND
  0
POINT
  5
41A
330
3FD
100
AcDbEntity
  8
Defpoints
 62
     0
100
AcDbPoint
 10
998.9855142692412
 20
882.7681155216806
 30
0.0
  0
POINT
  5
41B
330
3FD
100
AcDbEntity
  8
Defpoints
 62
     0
100
AcDbPoint
 10
1275.979406131287
 20
800.7681155216804
 30
0.0
  0
POINT
  5
41C
330
3FD
100
AcDbEntity
  8
Defpoints
 62
     0
100
AcDbPoint
 10
1275.979406131287
 20
961.8936453756855
 30
0.0
  0
ENDBLK
  5
408
330
3FD
100
AcDbEntity
  8
0
100
AcDbBlockEnd
  0
BLOCK
  5
4C6
330
4BC
100
AcDbEntity
  8
0
100
AcDbBlockBegin
  2
*D16
 70
     1
 10
0.0
 20
0.0
 30
0.0
  3
*D16
  1

  0
LINE
  5
4C9
330
4BC
100
AcDbEntity
  8
图层2
 62
     0
370
    -2
100
AcDbLine
 10
2804.054345059798
 20
691.8138851404042
 30
0.0
 11
2804.054345059798
 21
430.9612006478977
 31
0.0
  0
LINE
  5
4CA
330
4BC
100
AcDbEntity
  8
图层2
 62
     0
370
    -2
100
AcDbLine
 10
3493.054345059796
 20
691.8138851404052
 30
0.0
 11
3493.054345059796
 21
430.9612006478977
 31
0.0
  0
LINE
  5
4CB
330
4BC
100
AcDbEntity
  8
图层2
 62
     0
370
    -2
100
AcDbLine
 10
2819.054345059798
 20
432.2112006478977
 30
0.0
 11
3478.054345059796
 21
432.2112006478977
 31
0.0
  0
SOLID
  5
4CC
330
4BC
100
AcDbEntity
  8
图层2
 62
     0
100
AcDbTrace
 10
2819.054345059798
 20
434.7112006478978
 30
0.0
 11
2819.054345059798
 21
429.7112006478977
 31
0.0
 12
2804.054345059798
 22
432.2112006478977
 32
0.0
 13
2804.054345059798
 23
432.2112006478977
 33
0.0
  0
SOLID
  5
4CD
330
4BC
100
AcDbEntity
  8
图层2
 62
     0
100
AcDbTrace
 10
3478.054345059796
 20
434.7112006478978
 30
0.0
 11
3478.054345059796
 21
429.7112006478977
 31
0.0
 12
3493.054345059796
 22
432.2112006478977
 32
0.0
 13
3493.054345059796
 23
432.2112006478977
 33
0.0
  0
MTEXT
  5
4CE
330
4BC
100
AcDbEntity
  8
图层2
 62
     0
100
AcDbMText
 10
3148.554345059797
 20
441.7112006478977
 30
0.0
 40
15.0
 41
0.0
 46
0.0
 71
     5
 72
     1
  1
689
 73
     1
 44
1.0
1001
ACAD
1000
MTEXTBEGIN
1070
    73
1070
     1
1070
    44
1040
1.0
1070
    74
1070
     0
1000
MTEXTEND
  0
POINT
  5
4CF
330
4BC
100
AcDbEntity
  8
Defpoints
 62
     0
100
AcDbPoint
 10
2804.054345059798
 20
692.4388851404041
 30
0.0
  0
POINT
  5
4D0
330
4BC
100
AcDbEntity
  8
Defpoints
 62
     0
100
AcDbPoint
 10
3493.054345059796
 20
692.4388851404053
 30
0.0
  0
POINT
  5
4D1
330
4BC
100
AcDbEntity
  8
Defpoints
 62
     0
100
AcDbPoint
 10
3493.054345059796
 20
432.2112006478977
 30
0.0
  0
ENDBLK
  5
4C7
330
4BC
100
AcDbEntity
  8
0
100
AcDbBlockEnd
  0
BLOCK
  5
4DE
330
4D4
100
AcDbEntity
  8
0
100
AcDbBlockBegin
  2
*D17
 70
     1
 10
0.0
 20
0.0
 30
0.0
  3
*D17
  1

  0
LINE
  5
4E1
330
4D4
100
AcDbEntity
  8
图层2
 62
     0
370
    -2
100
AcDbLine
 10
2797.054345059798
 20
691.8138851404052
 30
0.0
 11
2797.054345059798
 21
399.7565366016798
 31
0.0
  0
LINE
  5
4E2
330
4D4
100
AcDbEntity
  8
图层2
 62
     0
370
    -2
100
AcDbLine
 10
3500.054345059796
 20
691.8138851404052
 30
0.0
 11
3500.054345059796
 21
399.7565366016798
 31
0.0
  0
LINE
  5
4E3
330
4D4
100
AcDbEntity
  8
图层2
 62
     0
370
    -2
100
AcDbLine
 10
2812.054345059798
 20
401.0065366016796
 30
0.0
 11
3485.054345059796
 21
401.0065366016796
 31
0.0
  0
SOLID
  5
4E4
330
4D4
100
AcDbEntity
  8
图层2
 62
     0
100
AcDbTrace
 10
2812.054345059798
 20
403.5065366016796
 30
0.0
 11
2812.054345059798
 21
398.5065366016797
 31
0.0
 12
2797.054345059798
 22
401.0065366016796
 32
0.0
 13
2797.054345059798
 23
401.0065366016796
 33
0.0
  0
SOLID
  5
4E5
330
4D4
100
AcDbEntity
  8
图层2
 62
     0
100
AcDbTrace
 10
3485.054345059796
 20
403.5065366016796
 30
0.0
 11
3485.054345059796
 21
398.5065366016797
 31
0.0
 12
3500.054345059796
 22
401.0065366016796
 32
0.0
 13
3500.054345059796
 23
401.0065366016796
 33
0.0
  0
MTEXT
  5
4E6
330
4D4
100
AcDbEntity
  8
图层2
 62
     0
100
AcDbMText
 10
3148.554345059797
 20
410.5065366016797
 30
0.0
 40
15.0
 41
0.0
 46
0.0
 71
     5
 72
     1
  1
703
 73
     1
 44
1.0
1001
ACAD
1000
MTEXTBEGIN
1070
    73
1070
     1
1070
    44
1040
1.0
1070
    74
1070
     0
1000
MTEXTEND
  0
POINT
  5
4E7
330
4D4
100
AcDbEntity
  8
Defpoints
 62
     0
100
AcDbPoint
 10
2797.054345059798
 20
692.4388851404053
 30
0.0
  0
POINT
  5
4E8
330
4D4
100
AcDbEntity
  8
Defpoints
 62
     0
100
AcDbPoint
 10
3500.054345059796
 20
692.4388851404053
 30
0.0
  0
POINT
  5
4E9
330
4D4
100
AcDbEntity
  8
Defpoints
 62
     0
100
AcDbPoint
 10
3500.054345059796
 20
401.0065366016796
 30
0.0
  0
ENDBLK
  5
4DF
330
4D4
100
AcDbEntity
  8
0
100
AcDbBlockEnd
  0
BLOCK
  5
4F6
330
4EC
100
AcDbEntity
  8
0
100
AcDbBlockBegin
  2
*D18
 70
     1
 10
0.0
 20
0.0
 30
0.0
  3
*D18
  1

  0
LINE
  5
4F9
330
4EC
100
AcDbEntity
  8
图层2
 62
     0
370
    -2
100
AcDbLine
 10
3328.679345059797
 20
902.4388851404037
 30
0.0
 11
3562.563010785233
 21
902.4388851404037
 31
0.0
  0
LINE
  5
4FA
330
4EC
100
AcDbEntity
  8
图层2
 62
     0
370
    -2
100
AcDbLine
 10
3328.679345059797
 20
482.4388851404035
 30
0.0
 11
3562.563010785233
 21
482.4388851404034
 31
0.0
  0
LINE
  5
4FB
330
4EC
100
AcDbEntity
  8
图层2
 62
     0
370
    -2
100
AcDbLine
 10
3561.313010785233
 20
887.4388851404033
 30
0.0
 11
3561.313010785233
 21
497.4388851404033
 31
0.0
  0
SOLID
  5
4FC
330
4EC
100
AcDbEntity
  8
图层2
 62
     0
100
AcDbTrace
 10
3558.813010785233
 20
887.4388851404033
 30
0.0
 11
3563.813010785234
 21
887.4388851404033
 31
0.0
 12
3561.313010785233
 22
902.4388851404037
 32
0.0
 13
3561.313010785233
 23
902.4388851404037
 33
0.0
  0
SOLID
  5
4FD
330
4EC
100
AcDbEntity
  8
图层2
 62
     0
100
AcDbTrace
 10
3558.813010785233
 20
497.4388851404033
 30
0.0
 11
3563.813010785234
 21
497.4388851404033
 31
0.0
 12
3561.313010785233
 22
482.4388851404034
 32
0.0
 13
3561.313010785233
 23
482.4388851404034
 33
0.0
  0
MTEXT
  5
4FE
330
4EC
100
AcDbEntity
  8
图层2
 62
     0
100
AcDbMText
 10
3551.813010785233
 20
692.4388851404041
 30
0.0
 40
15.0
 41
0.0
 46
0.0
 71
     5
 72
     1
  1
420
 11
0.0000000000000001
 21
1.0
 31
0.0
 73
     1
 44
1.0
1001
ACAD
1000
MTEXTBEGIN
1070
    73
1070
     1
1070
    44
1040
1.0
1070
    74
1070
     0
1000
MTEXTEND
  0
POINT
  5
4FF
330
4EC
100
AcDbEntity
  8
Defpoints
 62
     0
100
AcDbPoint
 10
3328.054345059797
 20
902.4388851404037
 30
0.0
  0
POINT
  5
500
330
4EC
100
AcDbEntity
  8
Defpoints
 62
     0
100
AcDbPoint
 10
3328.054345059797
 20
482.4388851404035
 30
0.0
  0
POINT
  5
501
330
4EC
100
AcDbEntity
  8
Defpoints
 62
     0
100
AcDbPoint
 10
3561.313010785233
 20
482.4388851404034
 30
0.0
  0
ENDBLK
  5
4F7
330
4EC
100
AcDbEntity
  8
0
100
AcDbBlockEnd
  0
BLOCK
  5
50E
330
504
100
AcDbEntity
  8
0
100
AcDbBlockBegin
  2
*D19
 70
     1
 10
0.0
 20
0.0
 30
0.0
  3
*D19
  1

  0
LINE
  5
511
330
504
100
AcDbEntity
  8
图层2
 62
     0
370
    -2
100
AcDbLine
 10
3328.679345059797
 20
909.4388851404035
 30
0.0
 11
3605.720294456921
 21
909.4388851404035
 31
0.0
  0
LINE
  5
512
330
504
100
AcDbEntity
  8
图层2
 62
     0
370
    -2
100
AcDbLine
 10
3328.679345059797
 20
475.4388851404033
 30
0.0
 11
3605.720294456921
 21
475.4388851404033
 31
0.0
  0
LINE
  5
513
330
504
100
AcDbEntity
  8
图层2
 62
     0
370
    -2
100
AcDbLine
 10
3604.470294456921
 20
894.4388851404037
 30
0.0
 11
3604.470294456921
 21
490.4388851404032
 31
0.0
  0
SOLID
  5
514
330
504
100
AcDbEntity
  8
图层2
 62
     0
100
AcDbTrace
 10
3601.970294456921
 20
894.4388851404037
 30
0.0
 11
3606.970294456921
 21
894.4388851404037
 31
0.0
 12
3604.470294456921
 22
909.4388851404035
 32
0.0
 13
3604.470294456921
 23
909.4388851404035
 33
0.0
  0
SOLID
  5
515
330
504
100
AcDbEntity
  8
图层2
 62
     0
100
AcDbTrace
 10
3601.970294456921
 20
490.4388851404032
 30
0.0
 11
3606.970294456921
 21
490.4388851404032
 31
0.0
 12
3604.470294456921
 22
475.4388851404033
 32
0.0
 13
3604.470294456921
 23
475.4388851404033
 33
0.0
  0
MTEXT
  5
516
330
504
100
AcDbEntity
  8
图层2
 62
     0
100
AcDbMText
 10
3594.970294456921
 20
692.4388851404041
 30
0.0
 40
15.0
 41
0.0
 46
0.0
 71
     5
 72
     1
  1
434
 11
0.0000000000000001
 21
1.0
 31
0.0
 73
     1
 44
1.0
1001
ACAD
1000
MTEXTBEGIN
1070
    73
1070
     1
1070
    44
1040
1.0
1070
    74
1070
     0
1000
MTEXTEND
  0
POINT
  5
517
330
504
100
AcDbEntity
  8
Defpoints
 62
     0
100
AcDbPoint
 10
3328.054345059797
 20
909.4388851404035
 30
0.0
  0
POINT
  5
518
330
504
100
AcDbEntity
  8
Defpoints
 62
     0
100
AcDbPoint
 10
3328.054345059797
 20
475.4388851404033
 30
0.0
  0
POINT
  5
519
330
504
100
AcDbEntity
  8
Defpoints
 62
     0
100
AcDbPoint
 10
3604.470294456921
 20
475.4388851404033
 30
0.0
  0
ENDBLK
  5
50F
330
504
100
AcDbEntity
  8
0
100
AcDbBlockEnd
  0
BLOCK
  5
522
330
51C
100
AcDbEntity
  8
0
100
AcDbBlockBegin
  2
*D20
 70
     1
 10
0.0
 20
0.0
 30
0.0
  3
*D20
  1

  0
LINE
  5
525
330
51C
100
AcDbEntity
  8
图层2
 62
     0
370
    -2
100
AcDbLine
 10
2887.749554592839
 20
561.7014886976797
 30
0.0
 11
2851.295762069679
 21
518.5347073643607
 31
0.0
  0
MTEXT
  5
526
330
51C
100
AcDbEntity
  8
图层2
 62
     0
100
AcDbMText
 10
2867.103525964129
 20
551.9776004906645
 30
0.0
 40
15.0
 41
0.0
 46
0.0
 71
     5
 72
     1
  1
R90
 11
0.6451998676665288
 21
0.7640138289082821
 31
0.0
 73
     1
 44
1.0
1001
ACAD
1000
MTEXTBEGIN
1070
    73
1070
     1
1070
    44
1040
1.0
1070
    74
1070
     0
1000
MTEXTEND
  0
SOLID
  5
527
330
51C
100
AcDbEntity
  8
图层2
 62
     0
100
AcDbTrace
 10
2849.385727497408
 20
520.1477070335272
 30
0.0
 11
2853.20579664195
 21
516.9217076951947
 31
0.0
 12
2841.617764054681
 22
507.0744999307366
 32
0.0
 13
2841.617764054681
 23
507.0744999307366
 33
0.0
  0
POINT
  5
528
330
51C
100
AcDbEntity
  8
Defpoints
 62
     0
100
AcDbPoint
 10
2841.617764054681
 20
507.0744999307366
 30
0.0
  0
POINT
  5
529
330
51C
100
AcDbEntity
  8
Defpoints
 62
     0
100
AcDbPoint
 10
2899.685752144668
 20
575.8357445324819
 30
0.0
  0
ENDBLK
  5
523
330
51C
100
AcDbEntity
  8
0
100
AcDbBlockEnd
  0
BLOCK
  5
532
330
52C
100
AcDbEntity
  8
0
100
AcDbBlockBegin
  2
*D21
 70
     1
 10
0.0
 20
0.0
 30
0.0
  3
*D21
  1

  0
LINE
  5
535
330
52C
100
AcDbEntity
  8
图层2
 62
     0
370
    -2
100
AcDbLine
 10
2888.357213243097
 20
823.6678319262923
 30
0.0
 11
2853.759243084247
 21
868.3358345779378
 31
0.0
  0
MTEXT
  5
536
330
52C
100
AcDbEntity
  8
图层2
 62
     0
100
AcDbMText
 10
2883.161428188131
 20
845.889810183473
 30
0.0
 40
15.0
 41
0.0
 46
0.0
 71
     5
 72
     1
  1
R90
 11
0.6123534541389235
 21
-0.7905841177282335
 31
0.0
 73
     1
 44
1.0
1001
ACAD
1000
MTEXTBEGIN
1070
    73
1070
     1
1070
    44
1040
1.0
1070
    74
1070
     0
1000
MTEXTEND
  0
SOLID
  5
537
330
52C
100
AcDbEntity
  8
图层2
 62
     0
100
AcDbTrace
 10
2855.735703378567
 20
869.8667182132849
 30
0.0
 11
2851.782782789927
 21
866.8049509425904
 31
0.0
 12
2844.573941272163
 22
880.1945963438614
 32
0.0
 13
2844.573941272163
 23
880.1945963438614
 33
0.0
  0
POINT
  5
538
330
52C
100
AcDbEntity
  8
Defpoints
 62
     0
100
AcDbPoint
 10
2844.573941272163
 20
880.1945963438614
 30
0.0
  0
POINT
  5
539
330
52C
100
AcDbEntity
  8
Defpoints
 62
     0
100
AcDbPoint
 10
2899.685752144666
 20
809.0420257483208
 30
0.0
  0
ENDBLK
  5
533
330
52C
100
AcDbEntity
  8
0
100
AcDbBlockEnd
  0
BLOCK
  5
542
330
53C
100
AcDbEntity
  8
0
100
AcDbBlockBegin
  2
*D22
 70
     1
 10
0.0
 20
0.0
 30
0.0
  3
*D22
  1

  0
LINE
  5
545
330
53C
100
AcDbEntity
  8
图层2
 62
     0
370
    -2
100
AcDbLine
 10
3411.036048571947
 20
821.569324733867
 30
0.0
 11
3452.611224179067
 21
859.8283729870226
 31
0.0
  0
MTEXT
  5
546
330
53C
100
AcDbEntity
  8
图层2
 62
     0
100
AcDbMText
 10
3419.871870438191
 20
842.6107303890987
 30
0.0
 40
15.0
 41
0.0
 46
0.0
 71
     5
 72
     1
  1
R90
 11
0.735843816055197
 21
0.6771512965160192
 31
0.0
 73
     1
 44
1.0
1001
ACAD
1000
MTEXTBEGIN
1070
    73
1070
     1
1070
    44
1040
1.0
1070
    74
1070
     0
1000
MTEXTEND
  0
SOLID
  5
547
330
53C
100
AcDbEntity
  8
图层2
 62
     0
100
AcDbTrace
 10
3450.918345937778
 20
861.6679825271601
 30
0.0
 11
3454.304102420358
 21
857.9887634468843
 31
0.0
 12
3463.648881419896
 22
869.9856424347629
 32
0.0
 13
3463.648881419896
 23
869.9856424347629
 33
0.0
  0
POINT
  5
548
330
53C
100
AcDbEntity
  8
Defpoints
 62
     0
100
AcDbPoint
 10
3463.648881419896
 20
869.9856424347629
 30
0.0
  0
POINT
  5
549
330
53C
100
AcDbEntity
  8
Defpoints
 62
     0
100
AcDbPoint
 10
3397.422937974929
 20
809.0420257483227
 30
0.0
  0
ENDBLK
  5
543
330
53C
100
AcDbEntity
  8
0
100
AcDbBlockEnd
  0
BLOCK
  5
552
330
54C
100
AcDbEntity
  8
0
100
AcDbBlockBegin
  2
*D23
 70
     1
 10
0.0
 20
0.0
 30
0.0
  3
*D23
  1

  0
LINE
  5
555
330
54C
100
AcDbEntity
  8
图层2
 62
     0
370
    -2
100
AcDbLine
 10
3408.819146996565
 20
561.2626041730725
 30
0.0
 11
3443.623785359954
 21
516.7554457781151
 31
0.0
  0
MTEXT
  5
556
330
54C
100
AcDbEntity
  8
图层2
 62
     0
100
AcDbMText
 10
3429.084885948643
 20
550.7691621864676
 30
0.0
 40
15.0
 41
0.0
 46
0.0
 71
     5
 72
     1
  1
R90
 11
0.6160112984670389
 21
-0.7877373167249048
 31
0.0
 73
     1
 44
1.0
1001
ACAD
1000
MTEXTBEGIN
1070
    73
1070
     1
1070
    44
1040
1.0
1070
    74
1070
     0
1000
MTEXTEND
  0
SOLID
  5
557
330
54C
100
AcDbEntity
  8
图层2
 62
     0
100
AcDbTrace
 10
3445.593128651765
 20
518.2954740242828
 30
0.0
 11
3441.65444206814
 21
515.2154175319476
 31
0.0
 12
3452.863954836959
 22
504.9393860272416
 32
0.0
 13
3452.863954836959
 23
504.9393860272416
 33
0.0
  0
POINT
  5
558
330
54C
100
AcDbEntity
  8
Defpoints
 62
     0
100
AcDbPoint
 10
3452.863954836959
 20
504.9393860272416
 30
0.0
  0
POINT
  5
559
330
54C
100
AcDbEntity
  8
Defpoints
 62
     0
100
AcDbPoint
 10
3397.422937974924
 20
575.8357445324842
 30
0.0
  0
ENDBLK
  5
553
330
54C
100
AcDbEntity
  8
0
100
AcDbBlockEnd
  0
BLOCK
  5
562
330
55C
100
AcDbEntity
  8
0
100
AcDbBlockBegin
  2
*D24
 70
     1
 10
0.0
 20
0.0
 30
0.0
  3
*D24
  1

  0
LINE
  5
565
330
55C
100
AcDbEntity
  8
图层2
 62
     0
370
    -2
100
AcDbLine
 10
2898.169264795545
 20
709.0874044762605
 30
0.0
 11
2819.176792705267
 21
710.1779791259558
 31
0.0
  0
MTEXT
  5
566
330
55C
100
AcDbEntity
  8
图层2
 62
     0
100
AcDbMText
 10
2866.303459128244
 20
719.0282509781327
 30
0.0
 40
15.0
 41
0.0
 46
0.0
 71
     5
 72
     1
  1
R1300
 11
0.9999047100035266
 21
-0.0138047424012064
 31
0.0
 73
     1
 44
1.0
1001
ACAD
1000
MTEXTBEGIN
1070
    73
1070
     1
1070
    44
1040
1.0
1070
    74
1070
     0
1000
MTEXTEND
  0
SOLID
  5
567
330
55C
100
AcDbEntity
  8
图层2
 62
     0
100
AcDbTrace
 10
2819.21130456127
 20
712.6777409009646
 30
0.0
 11
2819.142280849264
 21
707.6782173509468
 31
0.0
 12
2804.178222055213
 22
710.385050261974
 32
0.0
 13
2804.178222055213
 23
710.385050261974
 33
0.0
  0
POINT
  5
568
330
55C
100
AcDbEntity
  8
Defpoints
 62
     0
100
AcDbPoint
 10
2804.178222055213
 20
710.385050261974
 30
0.0
  0
POINT
  5
569
330
55C
100
AcDbEntity
  8
Defpoints
 62
     0
100
AcDbPoint
 10
4104.054345059799
 20
692.4388851404049
 30
0.0
  0
ENDBLK
  5
563
330
55C
100
AcDbEntity
  8
0
100
AcDbBlockEnd
  0
BLOCK
  5
572
330
56C
100
AcDbEntity
  8
0
100
AcDbBlockBegin
  2
*D25
 70
     1
 10
0.0
 20
0.0
 30
0.0
  3
*D25
  1

  0
LINE
  5
575
330
56C
100
AcDbEntity
  8
图层2
 62
     0
370
    -2
100
AcDbLine
 10
3398.863563460344
 20
713.889498657463
 30
0.0
 11
3477.851066158224
 21
715.2946383488789
 31
0.0
  0
MTEXT
  5
576
330
56C
100
AcDbEntity
  8
图层2
 62
     0
100
AcDbMText
 10
3430.689528767479
 20
723.9571663252498
 30
0.0
 40
15.0
 41
0.0
 46
0.0
 71
     5
 72
     1
  1
R1300
 11
0.9998418063022791
 21
0.0177865783723528
 31
0.0
 73
     1
 44
1.0
1001
ACAD
1000
MTEXTBEGIN
1070
    73
1070
     1
1070
    44
1040
1.0
1070
    74
1070
     0
1000
MTEXTEND
  0
SOLID
  5
577
330
56C
100
AcDbEntity
  8
图层2
 62
     0
100
AcDbTrace
 10
3477.806599712293
 20
717.7942428646344
 30
0.0
 11
3477.895532604156
 21
712.7950338331232
 31
0.0
 12
3492.848693252759
 22
715.5614370244641
 32
0.0
 13
3492.848693252759
 23
715.5614370244641
 33
0.0
  0
POINT
  5
578
330
56C
100
AcDbEntity
  8
Defpoints
 62
     0
100
AcDbPoint
 10
3492.848693252759
 20
715.5614370244641
 30
0.0
  0
POINT
  5
579
330
56C
100
AcDbEntity
  8
Defpoints
 62
     0
100
AcDbPoint
 10
2193.054345059796
 20
692.4388851404054
 30
0.0
  0
ENDBLK
  5
573
330
56C
100
AcDbEntity
  8
0
100
AcDbBlockEnd
  0
BLOCK
  5
582
330
57C
100
AcDbEntity
  8
0
100
AcDbBlockBegin
  2
*D26
 70
     1
 10
0.0
 20
0.0
 30
0.0
  3
*D26
  1

  0
LINE
  5
585
330
57C
100
AcDbEntity
  8
图层2
 62
     0
370
    -2
100
AcDbLine
 10
2924.173198082194
 20
567.8469157998749
 30
0.0
 11
2919.848059616476
 21
498.9826059053268
 31
0.0
  0
MTEXT
  5
586
330
57C
100
AcDbEntity
  8
图层2
 62
     0
100
AcDbMText
 10
2912.999434566649
 20
541.4955020067083
 30
0.0
 40
15.0
 41
0.0
 46
0.0
 71
     5
 72
     1
  1
R800
 11
0.0626831661698416
 21
0.9980334767325814
 31
0.0
 73
     1
 44
1.0
1001
ACAD
1000
MTEXTBEGIN
1070
    73
1070
     1
1070
    44
1040
1.0
1070
    74
1070
     0
1000
MTEXTEND
  0
SOLID
  5
587
330
57C
100
AcDbEntity
  8
图层2
 62
     0
100
AcDbTrace
 10
2917.352975924643
 20
499.1393138207516
 30
0.0
 11
2922.343143308307
 21
498.8258979899023
 31
0.0
 12
2918.907812123928
 22
484.0121037543381
 32
0.0
 13
2918.907812123928
 23
484.0121037543381
 33
0.0
  0
POINT
  5
588
330
57C
100
AcDbEntity
  8
Defpoints
 62
     0
100
AcDbPoint
 10
2918.907812123928
 20
484.0121037543381
 30
0.0
  0
POINT
  5
589
330
57C
100
AcDbEntity
  8
Defpoints
 62
     0
100
AcDbPoint
 10
2969.0543450598
 20
1282.438885140404
 30
0.0
  0
ENDBLK
  5
583
330
57C
100
AcDbEntity
  8
0
100
AcDbBlockEnd
  0
BLOCK
  5
592
330
58C
100
AcDbEntity
  8
0
100
AcDbBlockBegin
  2
*D27
 70
     1
 10
0.0
 20
0.0
 30
0.0
  3
*D27
  1

  0
LINE
  5
595
330
58C
100
AcDbEntity
  8
图层2
 62
     0
370
    -2
100
AcDbLine
 10
2931.125919488926
 20
817.4335945849659
 30
0.0
 11
2927.470805851509
 21
886.336716025853
 31
0.0
  0
MTEXT
  5
596
330
58C
100
AcDbEntity
  8
图层2
 62
     0
100
AcDbMText
 10
2939.182319278465
 20
844.8989258669858
 30
0.0
 40
15.0
 41
0.0
 46
0.0
 71
     5
 72
     1
  1
R800
 11
0.0529726614118354
 21
-0.9985959629114006
 31
0.0
 73
     1
 44
1.0
1001
ACAD
1000
MTEXTBEGIN
1070
    73
1070
     1
1070
    44
1040
1.0
1070
    74
1070
     0
1000
MTEXTEND
  0
SOLID
  5
597
330
58C
100
AcDbEntity
  8
图层2
 62
     0
100
AcDbTrace
 10
2929.967295758788
 20
886.4691476793826
 30
0.0
 11
2924.974315944231
 21
886.2042843723232
 31
0.0
 12
2926.676215930332
 22
901.3156554695239
 32
0.0
 13
2926.676215930332
 23
901.3156554695239
 33
0.0
  0
POINT
  5
598
330
58C
100
AcDbEntity
  8
Defpoints
 62
     0
100
AcDbPoint
 10
2926.676215930332
 20
901.3156554695239
 30
0.0
  0
POINT
  5
599
330
58C
100
AcDbEntity
  8
Defpoints
 62
     0
100
AcDbPoint
 10
2969.0543450598
 20
102.4388851404036
 30
0.0
  0
ENDBLK
  5
593
330
58C
100
AcDbEntity
  8
0
100
AcDbBlockEnd
  0
BLOCK
  5
5A2
330
59C
100
AcDbEntity
  8
0
100
AcDbBlockBegin
  2
*D28
 70
     1
 10
0.0
 20
0.0
 30
0.0
  3
*D28
  1

  0
LINE
  5
5A5
330
59C
100
AcDbEntity
  8
图层2
 62
     0
370
    -2
100
AcDbLine
 10
3370.84354478894
 20
817.1591691582417
 30
0.0
 11
3374.967084986302
 21
886.0358445733686
 31
0.0
  0
MTEXT
  5
5A6
330
59C
100
AcDbEntity
  8
图层2
 62
     0
100
AcDbMText
 10
3362.974083468434
 20
844.6786455072759
 30
0.0
 40
15.0
 41
0.0
 46
0.0
 71
     5
 72
     1
  1
R800
 11
0.0597614521356736
 21
0.998212687175752
 31
0.0
 73
     1
 44
1.0
1001
ACAD
1000
MTEXTBEGIN
1070
    73
1070
     1
1070
    44
1040
1.0
1070
    74
1070
     0
1000
MTEXTEND
  0
SOLID
  5
5A7
330
59C
100
AcDbEntity
  8
图层2
 62
     0
100
AcDbTrace
 10
3372.471553268364
 20
886.1852482037077
 30
0.0
 11
3377.462616704241
 21
885.8864409430294
 31
0.0
 12
3375.863506768336
 22
901.0090348810049
 32
0.0
 13
3375.863506768336
 23
901.0090348810049
 33
0.0
  0
POINT
  5
5A8
330
59C
100
AcDbEntity
  8
Defpoints
 62
     0
100
AcDbPoint
 10
3375.863506768336
 20
901.0090348810049
 30
0.0
  0
POINT
  5
5A9
330
59C
100
AcDbEntity
  8
Defpoints
 62
     0
100
AcDbPoint
 10
3328.054345059797
 20
102.4388851404034
 30
0.0
  0
ENDBLK
  5
5A3
330
59C
100
AcDbEntity
  8
0
100
AcDbBlockEnd
  0
BLOCK
  5
5B2
330
5AC
100
AcDbEntity
  8
0
100
AcDbBlockBegin
  2
*D29
 70
     1
 10
0.0
 20
0.0
 30
0.0
  3
*D29
  1

  0
LINE
  5
5B5
330
5AC
100
AcDbEntity
  8
图层2
 62
     0
370
    -2
100
AcDbLine
 10
3364.57006929878
 20
567.370635332525
 30
0.0
 11
3368.089042724044
 21
498.4604269013186
 31
0.0
  0
MTEXT
  5
5B6
330
5AC
100
AcDbEntity
  8
图层2
 62
     0
100
AcDbMText
 10
3375.434696292674
 20
540.8902675049517
 30
0.0
 40
15.0
 41
0.0
 46
0.0
 71
     5
 72
     1
  1
R800
 11
0.0509996148589139
 21
-0.9986986729160316
 31
0.0
 73
     1
 44
1.0
1001
ACAD
1000
MTEXTBEGIN
1070
    73
1070
     1
1070
    44
1040
1.0
1070
    74
1070
     0
1000
MTEXTEND
  0
SOLID
  5
5B7
330
5AC
100
AcDbEntity
  8
图层2
 62
     0
100
AcDbTrace
 10
3370.585789406334
 20
498.5879259384661
 30
0.0
 11
3365.592296041754
 21
498.3329278641715
 31
0.0
 12
3368.854036946929
 22
483.4799468075781
 32
0.0
 13
3368.854036946929
 23
483.4799468075781
 33
0.0
  0
POINT
  5
5B8
330
5AC
100
AcDbEntity
  8
Defpoints
 62
     0
100
AcDbPoint
 10
3368.854036946929
 20
483.4799468075781
 30
0.0
  0
POINT
  5
5B9
330
5AC
100
AcDbEntity
  8
Defpoints
 62
     0
100
AcDbPoint
 10
3328.054345059797
 20
1282.438885140404
 30
0.0
  0
ENDBLK
  5
5B3
330
5AC
100
AcDbEntity
  8
0
100
AcDbBlockEnd
  0
BLOCK
  5
65B
330
651
100
AcDbEntity
  8
0
100
AcDbBlockBegin
  2
*D30
 70
     1
 10
0.0
 20
0.0
 30
0.0
  3
*D30
  1

  0
LINE
  5
7E1
330
651
100
AcDbEntity
  8
图层2
 62
     0
370
    -2
100
AcDbLine
 10
5009.554726661689
 20
722.8098352138653
 30
0.0
 11
5009.554726661689
 21
471.7681788549469
 31
0.0
  0
LINE
  5
7E2
330
651
100
AcDbEntity
  8
图层2
 62
     0
370
    -2
100
AcDbLine
 10
5339.554726661688
 20
722.8098352138662
 30
0.0
 11
5339.554726661688
 21
471.7681788549469
 31
0.0
  0
LINE
  5
7E3
330
651
100
AcDbEntity
  8
图层2
 62
     0
370
    -2
100
AcDbLine
 10
5024.554726661689
 20
473.0181788549471
 30
0.0
 11
5324.554726661689
 21
473.0181788549471
 31
0.0
  0
SOLID
  5
7E4
330
651
100
AcDbEntity
  8
图层2
 62
     0
100
AcDbTrace
 10
5024.554726661689
 20
475.5181788549471
 30
0.0
 11
5024.554726661689
 21
470.5181788549471
 31
0.0
 12
5009.554726661689
 22
473.0181788549471
 32
0.0
 13
5009.554726661689
 23
473.0181788549471
 33
0.0
  0
SOLID
  5
7E5
330
651
100
AcDbEntity
  8
图层2
 62
     0
100
AcDbTrace
 10
5324.554726661689
 20
475.5181788549471
 30
0.0
 11
5324.554726661689
 21
470.5181788549471
 31
0.0
 12
5339.554726661688
 22
473.0181788549471
 32
0.0
 13
5339.554726661688
 23
473.0181788549471
 33
0.0
  0
MTEXT
  5
7E6
330
651
100
AcDbEntity
  8
图层2
 62
     0
100
AcDbMText
 10
5174.554726661689
 20
482.5181788549469
 30
0.0
 40
15.0
 41
0.0
 46
0.0
 71
     5
 72
     1
  1
330
 73
     1
 44
1.0
1001
ACAD
1000
MTEXTBEGIN
1070
    73
1070
     1
1070
    44
1040
1.0
1070
    74
1070
     0
1000
MTEXTEND
  0
POINT
  5
7E7
330
651
100
AcDbEntity
  8
Defpoints
 62
     0
100
AcDbPoint
 10
5009.554726661689
 20
723.4348352138653
 30
0.0
  0
POINT
  5
7E8
330
651
100
AcDbEntity
  8
Defpoints
 62
     0
100
AcDbPoint
 10
5339.554726661688
 20
723.4348352138662
 30
0.0
  0
POINT
  5
7E9
330
651
100
AcDbEntity
  8
Defpoints
 62
     0
100
AcDbPoint
 10
5339.554726661688
 20
473.0181788549471
 30
0.0
  0
ENDBLK
  5
65C
330
651
100
AcDbEntity
  8
0
100
AcDbBlockEnd
  0
BLOCK
  5
673
330
669
100
AcDbEntity
  8
0
100
AcDbBlockBegin
  2
*D31
 70
     1
 10
0.0
 20
0.0
 30
0.0
  3
*D31
  1

  0
LINE
  5
7D8
330
669
100
AcDbEntity
  8
图层2
 62
     0
370
    -2
100
AcDbLine
 10
5002.554726661688
 20
722.8098352138653
 30
0.0
 11
5002.554726661688
 21
439.1796906530498
 31
0.0
  0
LINE
  5
7D9
330
669
100
AcDbEntity
  8
图层2
 62
     0
370
    -2
100
AcDbLine
 10
5346.554726661689
 20
722.8098352138662
 30
0.0
 11
5346.554726661689
 21
439.1796906530498
 31
0.0
  0
LINE
  5
7DA
330
669
100
AcDbEntity
  8
图层2
 62
     0
370
    -2
100
AcDbLine
 10
5017.554726661689
 20
440.4296906530499
 30
0.0
 11
5331.554726661689
 21
440.4296906530499
 31
0.0
  0
SOLID
  5
7DB
330
669
100
AcDbEntity
  8
图层2
 62
     0
100
AcDbTrace
 10
5017.554726661689
 20
442.9296906530498
 30
0.0
 11
5017.554726661689
 21
437.9296906530498
 31
0.0
 12
5002.554726661688
 22
440.4296906530499
 32
0.0
 13
5002.554726661688
 23
440.4296906530499
 33
0.0
  0
SOLID
  5
7DC
330
669
100
AcDbEntity
  8
图层2
 62
     0
100
AcDbTrace
 10
5331.554726661689
 20
442.9296906530498
 30
0.0
 11
5331.554726661689
 21
437.9296906530498
 31
0.0
 12
5346.554726661689
 22
440.4296906530499
 32
0.0
 13
5346.554726661689
 23
440.4296906530499
 33
0.0
  0
MTEXT
  5
7DD
330
669
100
AcDbEntity
  8
图层2
 62
     0
100
AcDbMText
 10
5174.554726661689
 20
449.9296906530498
 30
0.0
 40
15.0
 41
0.0
 46
0.0
 71
     5
 72
     1
  1
344
 73
     1
 44
1.0
1001
ACAD
1000
MTEXTBEGIN
1070
    73
1070
     1
1070
    44
1040
1.0
1070
    74
1070
     0
1000
MTEXTEND
  0
POINT
  5
7DE
330
669
100
AcDbEntity
  8
Defpoints
 62
     0
100
AcDbPoint
 10
5002.554726661688
 20
723.4348352138653
 30
0.0
  0
POINT
  5
7DF
330
669
100
AcDbEntity
  8
Defpoints
 62
     0
100
AcDbPoint
 10
5346.554726661689
 20
723.4348352138662
 30
0.0
  0
POINT
  5
7E0
330
669
100
AcDbEntity
  8
Defpoints
 62
     0
100
AcDbPoint
 10
5346.554726661689
 20
440.4296906530499
 30
0.0
  0
ENDBLK
  5
674
330
669
100
AcDbEntity
  8
0
100
AcDbBlockEnd
  0
BLOCK
  5
68B
330
681
100
AcDbEntity
  8
0
100
AcDbBlockBegin
  2
*D32
 70
     1
 10
0.0
 20
0.0
 30
0.0
  3
*D32
  1

  0
LINE
  5
7CF
330
681
100
AcDbEntity
  8
图层2
 62
     0
370
    -2
100
AcDbLine
 10
5175.179726661689
 20
926.4348352138659
 30
0.0
 11
5393.728671888113
 21
926.4348352138656
 31
0.0
  0
LINE
  5
7D0
330
681
100
AcDbEntity
  8
图层2
 62
     0
370
    -2
100
AcDbLine
 10
5175.179726661687
 20
520.4348352138652
 30
0.0
 11
5393.728671888113
 21
520.4348352138651
 31
0.0
  0
LINE
  5
7D1
330
681
100
AcDbEntity
  8
图层2
 62
     0
370
    -2
100
AcDbLine
 10
5392.478671888113
 20
911.4348352138657
 30
0.0
 11
5392.478671888113
 21
535.4348352138653
 31
0.0
  0
SOLID
  5
7D2
330
681
100
AcDbEntity
  8
图层2
 62
     0
100
AcDbTrace
 10
5389.978671888113
 20
911.4348352138657
 30
0.0
 11
5394.978671888114
 21
911.4348352138657
 31
0.0
 12
5392.478671888113
 22
926.4348352138656
 32
0.0
 13
5392.478671888113
 23
926.4348352138656
 33
0.0
  0
SOLID
  5
7D3
330
681
100
AcDbEntity
  8
图层2
 62
     0
100
AcDbTrace
 10
5389.978671888113
 20
535.4348352138653
 30
0.0
 11
5394.978671888114
 21
535.4348352138653
 31
0.0
 12
5392.478671888113
 22
520.4348352138651
 32
0.0
 13
5392.478671888113
 23
520.4348352138651
 33
0.0
  0
MTEXT
  5
7D4
330
681
100
AcDbEntity
  8
图层2
 62
     0
100
AcDbMText
 10
5382.978671888113
 20
723.4348352138664
 30
0.0
 40
15.0
 41
0.0
 46
0.0
 71
     5
 72
     1
  1
406
 11
0.0000000000000001
 21
1.0
 31
0.0
 73
     1
 44
1.0
1001
ACAD
1000
MTEXTBEGIN
1070
    73
1070
     1
1070
    44
1040
1.0
1070
    74
1070
     0
1000
MTEXTEND
  0
POINT
  5
7D5
330
681
100
AcDbEntity
  8
Defpoints
 62
     0
100
AcDbPoint
 10
5174.554726661689
 20
926.4348352138659
 30
0.0
  0
POINT
  5
7D6
330
681
100
AcDbEntity
  8
Defpoints
 62
     0
100
AcDbPoint
 10
5174.554726661686
 20
520.4348352138652
 30
0.0
  0
POINT
  5
7D7
330
681
100
AcDbEntity
  8
Defpoints
 62
     0
100
AcDbPoint
 10
5392.478671888113
 20
520.4348352138651
 30
0.0
  0
ENDBLK
  5
68C
330
681
100
AcDbEntity
  8
0
100
AcDbBlockEnd
  0
BLOCK
  5
6A3
330
699
100
AcDbEntity
  8
0
100
AcDbBlockBegin
  2
*D33
 70
     1
 10
0.0
 20
0.0
 30
0.0
  3
*D33
  1

  0
LINE
  5
7C6
330
699
100
AcDbEntity
  8
图层2
 62
     0
370
    -2
100
AcDbLine
 10
5175.179726661689
 20
933.4348352138659
 30
0.0
 11
5433.320069697671
 21
933.4348352138658
 31
0.0
  0
LINE
  5
7C7
330
699
100
AcDbEntity
  8
图层2
 62
     0
370
    -2
100
AcDbLine
 10
5175.179726661687
 20
513.4348352138653
 30
0.0
 11
5433.320069697671
 21
513.4348352138653
 31
0.0
  0
LINE
  5
7C8
330
699
100
AcDbEntity
  8
图层2
 62
     0
370
    -2
100
AcDbLine
 10
5432.070069697671
 20
918.4348352138655
 30
0.0
 11
5432.070069697671
 21
528.4348352138652
 31
0.0
  0
SOLID
  5
7C9
330
699
100
AcDbEntity
  8
图层2
 62
     0
100
AcDbTrace
 10
5429.570069697671
 20
918.4348352138655
 30
0.0
 11
5434.570069697671
 21
918.4348352138655
 31
0.0
 12
5432.070069697671
 22
933.4348352138658
 32
0.0
 13
5432.070069697671
 23
933.4348352138658
 33
0.0
  0
SOLID
  5
7CA
330
699
100
AcDbEntity
  8
图层2
 62
     0
100
AcDbTrace
 10
5429.570069697671
 20
528.4348352138652
 30
0.0
 11
5434.570069697671
 21
528.4348352138652
 31
0.0
 12
5432.070069697671
 22
513.4348352138653
 32
0.0
 13
5432.070069697671
 23
513.4348352138653
 33
0.0
  0
MTEXT
  5
7CB
330
699
100
AcDbEntity
  8
图层2
 62
     0
100
AcDbMText
 10
5422.570069697671
 20
723.4348352138664
 30
0.0
 40
15.0
 41
0.0
 46
0.0
 71
     5
 72
     1
  1
420
 11
0.0000000000000001
 21
1.0
 31
0.0
 73
     1
 44
1.0
1001
ACAD
1000
MTEXTBEGIN
1070
    73
1070
     1
1070
    44
1040
1.0
1070
    74
1070
     0
1000
MTEXTEND
  0
POINT
  5
7CC
330
699
100
AcDbEntity
  8
Defpoints
 62
     0
100
AcDbPoint
 10
5174.554726661689
 20
933.4348352138659
 30
0.0
  0
POINT
  5
7CD
330
699
100
AcDbEntity
  8
Defpoints
 62
     0
100
AcDbPoint
 10
5174.554726661686
 20
513.4348352138653
 30
0.0
  0
POINT
  5
7CE
330
699
100
AcDbEntity
  8
Defpoints
 62
     0
100
AcDbPoint
 10
5432.070069697671
 20
513.4348352138653
 30
0.0
  0
ENDBLK
  5
6A4
330
699
100
AcDbEntity
  8
0
100
AcDbBlockEnd
  0
BLOCK
  5
6B7
330
6B1
100
AcDbEntity
  8
0
100
AcDbBlockBegin
  2
*D34
 70
     1
 10
0.0
 20
0.0
 30
0.0
  3
*D34
  1

  0
LINE
  5
80D
330
6B1
100
AcDbEntity
  8
图层2
 62
     0
370
    -2
100
AcDbLine
 10
5087.373512716876
 20
596.715307859225
 30
0.0
 11
5047.641708633221
 21
556.5452475623041
 31
0.0
  0
MTEXT
  5
80E
330
6B1
100
AcDbEntity
  8
图层2
 62
     0
100
AcDbMText
 10
5066.02748603446
 20
588.6431554279611
 30
0.0
 40
15.0
 41
0.0
 46
0.0
 71
     5
 72
     1
  1
R80
 11
0.7032177713920924
 21
0.7109745185295596
 31
0.0
 73
     1
 44
1.0
1001
ACAD
1000
MTEXTBEGIN
1070
    73
1070
     1
1070
    44
1040
1.0
1070
    74
1070
     0
1000
MTEXTEND
  0
SOLID
  5
80F
330
6B1
100
AcDbEntity
  8
图层2
 62
     0
100
AcDbTrace
 10
5045.864272336899
 20
558.3032919907846
 30
0.0
 11
5049.419144929547
 21
554.7872031338238
 31
0.0
 12
5037.093442062342
 22
545.8806297843606
 32
0.0
 13
5037.093442062342
 23
545.8806297843606
 33
0.0
  0
POINT
  5
810
330
6B1
100
AcDbEntity
  8
Defpoints
 62
     0
100
AcDbPoint
 10
5037.093442062342
 20
545.8806297843606
 30
0.0
  0
POINT
  5
811
330
6B1
100
AcDbEntity
  8
Defpoints
 62
     0
100
AcDbPoint
 10
5093.350863773711
 20
602.7585912667258
 30
0.0
  0
ENDBLK
  5
6B8
330
6B1
100
AcDbEntity
  8
0
100
AcDbBlockEnd
  0
BLOCK
  5
6C7
330
6C1
100
AcDbEntity
  8
0
100
AcDbBlockBegin
  2
*D35
 70
     1
 10
0.0
 20
0.0
 30
0.0
  3
*D35
  1

  0
LINE
  5
808
330
6C1
100
AcDbEntity
  8
图层2
 62
     0
370
    -2
100
AcDbLine
 10
5158.874929396688
 20
614.5222689574405
 30
0.0
 11
5157.993916605836
 21
535.5271816642273
 31
0.0
  0
MTEXT
  5
809
330
6C1
100
AcDbEntity
  8
图层2
 62
     0
100
AcDbMText
 10
5149.018654224629
 20
582.6302034907357
 30
0.0
 40
15.0
 41
0.0
 46
0.0
 71
     5
 72
     1
  1
R1500
 11
0.01115206064367
 21
0.9999378138381405
 31
0.0
 73
     1
 44
1.0
1001
ACAD
1000
MTEXTBEGIN
1070
    73
1070
     1
1070
    44
1040
1.0
1070
    74
1070
     0
1000
MTEXTEND
  0
SOLID
  5
80A
330
6C1
100
AcDbEntity
  8
图层2
 62
     0
100
AcDbTrace
 10
5155.494072071242
 20
535.5550618158364
 30
0.0
 11
5160.493761140433
 21
535.4993015126182
 31
0.0
 12
5157.826635696181
 22
520.528114456655
 32
0.0
 13
5157.826635696181
 23
520.528114456655
 33
0.0
  0
POINT
  5
80B
330
6C1
100
AcDbEntity
  8
Defpoints
 62
     0
100
AcDbPoint
 10
5157.826635696181
 20
520.528114456655
 30
0.0
  0
POINT
  5
80C
330
6C1
100
AcDbEntity
  8
Defpoints
 62
     0
100
AcDbPoint
 10
5174.554726661689
 20
2020.434835213865
 30
0.0
  0
ENDBLK
  5
6C8
330
6C1
100
AcDbEntity
  8
0
100
AcDbBlockEnd
  0
BLOCK
  5
6D7
330
6D1
100
AcDbEntity
  8
0
100
AcDbBlockBegin
  2
*D36
 70
     1
 10
0.0
 20
0.0
 30
0.0
  3
*D36
  1

  0
LINE
  5
803
330
6D1
100
AcDbEntity
  8
图层2
 62
     0
370
    -2
100
AcDbLine
 10
5261.096253601063
 20
596.1435068020769
 30
0.0
 11
5296.576020530931
 21
552.1726512429426
 31
0.0
  0
MTEXT
  5
804
330
6D1
100
AcDbEntity
  8
图层2
 62
     0
100
AcDbMText
 10
5281.51976318702
 20
585.9605427840542
 30
0.0
 40
15.0
 41
0.0
 46
0.0
 71
     5
 72
     1
  1
R80
 11
0.6279604766348408
 21
-0.778245231135112
 31
0.0
 73
     1
 44
1.0
1001
ACAD
1000
MTEXTBEGIN
1070
    73
1070
     1
1070
    44
1040
1.0
1070
    74
1070
     0
1000
MTEXTEND
  0
SOLID
  5
805
330
6D1
100
AcDbEntity
  8
图层2
 62
     0
100
AcDbTrace
 10
5298.521633608769
 20
553.7425524345293
 30
0.0
 11
5294.630407453094
 21
550.6027500513555
 31
0.0
 12
5305.995427680453
 22
540.4989727759161
 32
0.0
 13
5305.995427680453
 23
540.4989727759161
 33
0.0
  0
POINT
  5
806
330
6D1
100
AcDbEntity
  8
Defpoints
 62
     0
100
AcDbPoint
 10
5305.995427680453
 20
540.4989727759161
 30
0.0
  0
POINT
  5
807
330
6D1
100
AcDbEntity
  8
Defpoints
 62
     0
100
AcDbPoint
 10
5255.758589549667
 20
602.7585912667258
 30
0.0
  0
ENDBLK
  5
6D8
330
6D1
100
AcDbEntity
  8
0
100
AcDbBlockEnd
  0
BLOCK
  5
6E7
330
6E1
100
AcDbEntity
  8
0
100
AcDbBlockBegin
  2
*D37
 70
     1
 10
0.0
 20
0.0
 30
0.0
  3
*D37
  1

  0
LINE
  5
7FE
330
6E1
100
AcDbEntity
  8
图层2
 62
     0
370
    -2
100
AcDbLine
 10
5087.584307902371
 20
850.3558236219678
 30
0.0
 11
5049.253671816412
 21
891.8650073918966
 31
0.0
  0
MTEXT
  5
7FF
330
6E1
100
AcDbEntity
  8
图层2
 62
     0
100
AcDbMText
 10
5080.486547672824
 20
872.0453210740496
 30
0.0
 40
15.0
 41
0.0
 46
0.0
 71
     5
 72
     1
  1
R80
 11
0.6784183378046022
 21
-0.7346758189367885
 31
0.0
 73
     1
 44
1.0
1001
ACAD
1000
MTEXTBEGIN
1070
    73
1070
     1
1070
    44
1040
1.0
1070
    74
1070
     0
1000
MTEXTEND
  0
SOLID
  5
800
330
6E1
100
AcDbEntity
  8
图层2
 62
     0
100
AcDbTrace
 10
5051.090361363753
 20
893.5610532364078
 30
0.0
 11
5047.416982269069
 21
890.1689615473852
 31
0.0
 12
5039.077396749342
 22
902.8851446759484
 32
0.0
 13
5039.077396749342
 23
902.8851446759484
 33
0.0
  0
POINT
  5
801
330
6E1
100
AcDbEntity
  8
Defpoints
 62
     0
100
AcDbPoint
 10
5039.077396749342
 20
902.8851446759484
 30
0.0
  0
POINT
  5
802
330
6E1
100
AcDbEntity
  8
Defpoints
 62
     0
100
AcDbPoint
 10
5093.350863773711
 20
844.1110791610054
 30
0.0
  0
ENDBLK
  5
6E8
330
6E1
100
AcDbEntity
  8
0
100
AcDbBlockEnd
  0
BLOCK
  5
6F7
330
6F1
100
AcDbEntity
  8
0
100
AcDbBlockBegin
  2
*D38
 70
     1
 10
0.0
 20
0.0
 30
0.0
  3
*D38
  1

  0
LINE
  5
7F9
330
6F1
100
AcDbEntity
  8
图层2
 62
     0
370
    -2
100
AcDbLine
 10
5177.503228770034
 20
832.4317435800676
 30
0.0
 11
5177.668898518653
 21
911.4315698680686
 31
0.0
  0
MTEXT
  5
7FA
330
6F1
100
AcDbEntity
  8
图层2
 62
     0
100
AcDbMText
 10
5168.070356393069
 20
864.4515955272552
 30
0.0
 40
15.0
 41
0.0
 46
0.0
 71
     5
 72
     1
  1
R1500
 11
0.0020970854255652
 21
0.9999978011139415
 31
0.0
 73
     1
 44
1.0
1001
ACAD
1000
MTEXTBEGIN
1070
    73
1070
     1
1070
    44
1040
1.0
1070
    74
1070
     0
1000
MTEXTEND
  0
SOLID
  5
7FB
330
6F1
100
AcDbEntity
  8
图层2
 62
     0
100
AcDbTrace
 10
5175.168904015869
 20
911.4368125816326
 30
0.0
 11
5180.16889302144
 21
911.426327154505
 31
0.0
 12
5177.700354800037
 22
926.431536884778
 32
0.0
 13
5177.700354800037
 23
926.431536884778
 33
0.0
  0
POINT
  5
7FC
330
6F1
100
AcDbEntity
  8
Defpoints
 62
     0
100
AcDbPoint
 10
5177.700354800037
 20
926.431536884778
 30
0.0
  0
POINT
  5
7FD
330
6F1
100
AcDbEntity
  8
Defpoints
 62
     0
100
AcDbPoint
 10
5174.554726661689
 20
-573.5651647861342
 30
0.0
  0
ENDBLK
  5
6F8
330
6F1
100
AcDbEntity
  8
0
100
AcDbBlockEnd
  0
BLOCK
  5
707
330
701
100
AcDbEntity
  8
0
100
AcDbBlockBegin
  2
*D39
 70
     1
 10
0.0
 20
0.0
 30
0.0
  3
*D39
  1

  0
LINE
  5
7F4
330
701
100
AcDbEntity
  8
图层2
 62
     0
370
    -2
100
AcDbLine
 10
5260.435145492106
 20
851.2089538089012
 30
0.0
 11
5291.520487933023
 21
898.3889441155039
 31
0.0
  0
MTEXT
  5
7F5
330
701
100
AcDbEntity
  8
图层2
 62
     0
100
AcDbMText
 10
5263.918525098057
 20
873.7628573850187
 30
0.0
 40
15.0
 41
0.0
 46
0.0
 71
     5
 72
     1
  1
R80
 11
0.550183052051617
 21
0.8350440762230267
 31
0.0
 73
     1
 44
1.0
1001
ACAD
1000
MTEXTBEGIN
1070
    73
1070
     1
1070
    44
1040
1.0
1070
    74
1070
     0
1000
MTEXTEND
  0
SOLID
  5
7F6
330
701
100
AcDbEntity
  8
图层2
 62
     0
100
AcDbTrace
 10
5289.432877742465
 20
899.7644017456327
 30
0.0
 11
5293.608098123581
 21
897.0134864853749
 31
0.0
 12
5299.773233713796
 22
910.9146052588487
 32
0.0
 13
5299.773233713796
 23
910.9146052588487
 33
0.0
  0
POINT
  5
7F7
330
701
100
AcDbEntity
  8
Defpoints
 62
     0
100
AcDbPoint
 10
5299.773233713796
 20
910.9146052588487
 30
0.0
  0
POINT
  5
7F8
330
701
100
AcDbEntity
  8
Defpoints
 62
     0
100
AcDbPoint
 10
5255.758589549667
 20
844.1110791610057
 30
0.0
  0
ENDBLK
  5
708
330
701
100
AcDbEntity
  8
0
100
AcDbBlockEnd
  0
BLOCK
  5
717
330
711
100
AcDbEntity
  8
0
100
AcDbBlockBegin
  2
*D40
 70
     1
 10
0.0
 20
0.0
 30
0.0
  3
*D40
  1

  0
LINE
  5
7EF
330
711
100
AcDbEntity
  8
图层2
 62
     0
370
    -2
100
AcDbLine
 10
5106.104710313648
 20
709.6404427075297
 30
0.0
 11
5024.606850406966
 21
709.0498238531736
 31
0.0
  0
MTEXT
  5
7F0
330
711
100
AcDbEntity
  8
图层2
 62
     0
100
AcDbMText
 10
5072.786738276672
 20
718.8992352499361
 30
0.0
 40
15.0
 41
0.0
 46
0.0
 71
     5
 72
     1
  1
R2000
 11
0.9999737411862607
 21
0.0072468571086603
 31
0.0
 73
     1
 44
1.0
1001
ACAD
1000
MTEXTBEGIN
1070
    73
1070
     1
1070
    44
1040
1.0
1070
    74
1070
     0
1000
MTEXTEND
  0
SOLID
  5
7F1
330
711
100
AcDbEntity
  8
图层2
 62
     0
100
AcDbTrace
 10
5024.588733264194
 20
711.5497582061395
 30
0.0
 11
5024.624967549737
 21
706.5498895002083
 31
0.0
 12
5009.607244289173
 22
708.9411209965438
 32
0.0
 13
5009.607244289173
 23
708.9411209965438
 33
0.0
  0
POINT
  5
7F2
330
711
100
AcDbEntity
  8
Defpoints
 62
     0
100
AcDbPoint
 10
5009.607244289173
 20
708.9411209965438
 30
0.0
  0
POINT
  5
7F3
330
711
100
AcDbEntity
  8
Defpoints
 62
     0
100
AcDbPoint
 10
7009.554726661689
 20
723.4348352138652
 30
0.0
  0
ENDBLK
  5
718
330
711
100
AcDbEntity
  8
0
100
AcDbBlockEnd
  0
BLOCK
  5
727
330
721
100
AcDbEntity
  8
0
100
AcDbBlockBegin
  2
*D41
 70
     1
 10
0.0
 20
0.0
 30
0.0
  3
*D41
  1

  0
LINE
  5
7EA
330
721
100
AcDbEntity
  8
图层2
 62
     0
370
    -2
100
AcDbLine
 10
5242.987188148116
 20
707.4000430507912
 30
0.0
 11
5324.484296428203
 21
706.7134995460418
 31
0.0
  0
MTEXT
  5
7EB
330
721
100
AcDbEntity
  8
图层2
 62
     0
100
AcDbMText
 10
5276.316034940851
 20
716.6196130769004
 30
0.0
 40
15.0
 41
0.0
 46
0.0
 71
     5
 72
     1
  1
R2000
 11
0.9999645187740632
 21
-0.0084238466840424
 31
0.0
 73
     1
 44
1.0
1001
ACAD
1000
MTEXTBEGIN
1070
    73
1070
     1
1070
    44
1040
1.0
1070
    74
1070
     0
1000
MTEXTEND
  0
SOLID
  5
7EC
330
721
100
AcDbEntity
  8
图层2
 62
     0
100
AcDbTrace
 10
5324.505356044912
 20
709.2134108429769
 30
0.0
 11
5324.463236811492
 21
704.2135882491066
 31
0.0
 12
5339.483764209814
 22
706.5871418457812
 32
0.0
 13
5339.483764209814
 23
706.5871418457812
 33
0.0
  0
POINT
  5
7ED
330
721
100
AcDbEntity
  8
Defpoints
 62
     0
100
AcDbPoint
 10
5339.483764209814
 20
706.5871418457812
 30
0.0
  0
POINT
  5
7EE
330
721
100
AcDbEntity
  8
Defpoints
 62
     0
100
AcDbPoint
 10
3339.554726661689
 20
723.4348352138664
 30
0.0
  0
ENDBLK
  5
728
330
721
100
AcDbEntity
  8
0
100
AcDbBlockEnd
  0
BLOCK
  5
9F1
330
9E7
100
AcDbEntity
  8
0
100
AcDbBlockBegin
  2
*D42
 70
     1
 10
0.0
 20
0.0
 30
0.0
  3
*D42
  1

  0
ARC
  5
C50
330
9E7
100
AcDbEntity
  8
0
 62
     0
370
    -2
100
AcDbCircle
 10
555.0583017736506
 20
1757.290126987958
 30
0.0
 40
155.1514763190064
100
AcDbArc
 50
5.541499050703554
 51
82.45416439414633
  0
SOLID
  5
C51
330
9E7
100
AcDbEntity
  8
0
 62
     0
100
AcDbTrace
 10
711.9817576194848
 20
1772.393440814946
 30
0.0
 11
706.9876028903627
 21
1772.151741535702
 31
0.0
 12
710.2097780926567
 22
1757.290126987958
 32
0.0
 13
710.2097780926567
 23
1757.290126987958
 33
0.0
  0
SOLID
  5
C52
330
9E7
100
AcDbEntity
  8
0
 62
     0
100
AcDbTrace
 10
575.2245719500608
 20
1908.606688117103
 30
0.0
 11
575.6407946026618
 21
1913.589333870462
 31
0.0
 12
560.4847460162856
 22
1912.346678951584
 32
0.0
 13
560.4847460162856
 23
1912.346678951584
 33
0.0
  0
MTEXT
  5
C53
330
9E7
100
AcDbEntity
  8
0
 62
     0
100
AcDbMText
 10
673.5029902071552
 20
1871.662170931914
 30
0.0
 40
15.0
 41
0.0
 46
0.0
 71
     5
 72
     1
  1
88°
 11
0.6946311475662986
 21
-0.719366088185096
 31
0.0
 73
     1
 44
1.0
1001
ACAD
1000
MTEXTBEGIN
1070
    73
1070
     1
1070
    44
1040
1.0
1070
    74
1070
     0
1000
MTEXTEND
  0
POINT
  5
C54
330
9E7
100
AcDbEntity
  8
Defpoints
 62
     0
100
AcDbPoint
 10
690.3188581352049
 20
1833.293827534246
 30
0.0
  0
POINT
  5
C55
330
9E7
100
AcDbEntity
  8
Defpoints
 62
     0
100
AcDbPoint
 10
558.6803576016111
 20
1860.787640754104
 30
0.0
  0
POINT
  5
C56
330
9E7
100
AcDbEntity
  8
Defpoints
 62
     0
100
AcDbPoint
 10
658.6191758728683
 20
1757.290126987958
 30
0.0
  0
POINT
  5
C57
330
9E7
100
AcDbEntity
  8
Defpoints
 62
     0
100
AcDbPoint
 10
1205.185555776735
 20
1757.290126987958
 30
0.0
  0
POINT
  5
C58
330
9E7
100
AcDbEntity
  8
Defpoints
 62
     0
100
AcDbPoint
 10
565.3673961617307
 20
2051.864724681979
 30
0.0
  0
ENDBLK
  5
9F2
330
9E7
100
AcDbEntity
  8
0
100
AcDbBlockEnd
  0
BLOCK
  5
A05
330
9FF
100
AcDbEntity
  8
0
100
AcDbBlockBegin
  2
*D43
 70
     1
 10
0.0
 20
0.0
 30
0.0
  3
*D43
  1

  0
LINE
  5
C70
330
9FF
100
AcDbEntity
  8
0
 62
     0
370
    -2
100
AcDbLine
 10
1246.925495933661
 20
2088.962799690075
 30
0.0
 11
1290.581965192233
 21
2128.650489114823
 31
0.0
  0
MTEXT
  5
C71
330
9FF
100
AcDbEntity
  8
0
 62
     0
100
AcDbMText
 10
1256.813788715924
 20
2110.791030627378
 30
0.0
 40
15.0
 41
0.0
 46
0.0
 71
     5
 72
     1
  1
R75
 11
0.7399401569249481
 21
0.6726727021143964
 31
0.0
 73
     1
 44
1.0
1001
ACAD
1000
MTEXTBEGIN
1070
    73
1070
     1
1070
    44
1040
1.0
1070
    74
1070
     0
1000
MTEXTEND
  0
SOLID
  5
C72
330
9FF
100
AcDbEntity
  8
0
 62
     0
100
AcDbTrace
 10
1288.900283436947
 20
2130.500339507136
 30
0.0
 11
1292.263646947519
 21
2126.800638722512
 31
0.0
 12
1301.681067546107
 22
2138.74057964654
 32
0.0
 13
1301.681067546107
 23
2138.74057964654
 33
0.0
  0
POINT
  5
C73
330
9FF
100
AcDbEntity
  8
Defpoints
 62
     0
100
AcDbPoint
 10
1301.681067546107
 20
2138.74057964654
 30
0.0
  0
POINT
  5
C74
330
9FF
100
AcDbEntity
  8
Defpoints
 62
     0
100
AcDbPoint
 10
1246.185555776735
 20
2088.290126987959
 30
0.0
  0
ENDBLK
  5
A06
330
9FF
100
AcDbEntity
  8
0
100
AcDbBlockEnd
  0
BLOCK
  5
A0D
330
A07
100
AcDbEntity
  8
0
100
AcDbBlockBegin
  2
*D44
 70
     1
 10
0.0
 20
0.0
 30
0.0
  3
*D44
  1

  0
LINE
  5
C75
330
A07
100
AcDbEntity
  8
0
 62
     0
370
    -2
100
AcDbLine
 10
960.9664457504068
 20
2117.51737886728
 30
0.0
 11
1004.87673845714
 21
2181.850651922802
 31
0.0
  0
MTEXT
  5
C76
330
A07
100
AcDbEntity
  8
0
 62
     0
100
AcDbMText
 10
967.6363980511792
 20
2144.141132102041
 30
0.0
 40
15.0
 41
0.0
 46
0.0
 71
     5
 72
     1
  1
R180
 11
0.5637460250229687
 21
0.8259481940598952
 31
0.0
 73
     1
 44
1.0
1001
ACAD
1000
MTEXTBEGIN
1070
    73
1070
     1
1070
    44
1040
1.0
1070
    74
1070
     0
1000
MTEXTEND
  0
SOLID
  5
C77
330
A07
100
AcDbEntity
  8
0
 62
     0
100
AcDbTrace
 10
1002.81186797199
 20
2183.260016985359
 30
0.0
 11
1006.94160894229
 21
2180.441286860244
 31
0.0
 12
1013.332928832484
 22
2194.2398748337
 32
0.0
 13
1013.332928832484
 23
2194.2398748337
 33
0.0
  0
POINT
  5
C78
330
A07
100
AcDbEntity
  8
Defpoints
 62
     0
100
AcDbPoint
 10
1013.332928832484
 20
2194.2398748337
 30
0.0
  0
POINT
  5
C79
330
A07
100
AcDbEntity
  8
Defpoints
 62
     0
100
AcDbPoint
 10
911.8586443283486
 20
2045.569199902917
 30
0.0
  0
ENDBLK
  5
A0E
330
A07
100
AcDbEntity
  8
0
100
AcDbBlockEnd
  0
BLOCK
  5
A15
330
A0F
100
AcDbEntity
  8
0
100
AcDbBlockBegin
  2
*D45
 70
     1
 10
0.0
 20
0.0
 30
0.0
  3
*D45
  1

  0
LINE
  5
C7F
330
A0F
100
AcDbEntity
  8
0
 62
     0
370
    -2
100
AcDbLine
 10
826.3253541537936
 20
2133.35653838576
 30
0.0
 11
825.7969950179328
 21
2222.354970038368
 31
0.0
  0
MTEXT
  5
C80
330
A0F
100
AcDbEntity
  8
0
 62
     0
100
AcDbMText
 10
835.6574772449359
 20
2161.662438452915
 30
0.0
 40
15.0
 41
0.0
 46
0.0
 71
     5
 72
     1
  1
R480
 11
0.0059366195040533
 21
-0.9999823781191668
 31
0.0
 73
     1
 44
1.0
1001
ACAD
1000
MTEXTBEGIN
1070
    73
1070
     1
1070
    44
1040
1.0
1070
    74
1070
     0
1000
MTEXTEND
  0
SOLID
  5
C81
330
A0F
100
AcDbEntity
  8
0
 62
     0
100
AcDbTrace
 10
828.2969509632309
 20
2222.369811587128
 30
0.0
 11
823.297039072635
 21
2222.340128489608
 31
0.0
 12
825.7079457253722
 22
2237.354705710156
 32
0.0
 13
825.7079457253722
 23
2237.354705710156
 33
0.0
  0
POINT
  5
C82
330
A0F
100
AcDbEntity
  8
Defpoints
 62
     0
100
AcDbPoint
 10
825.7079457253722
 20
2237.354705710156
 30
0.0
  0
POINT
  5
C83
330
A0F
100
AcDbEntity
  8
Defpoints
 62
     0
100
AcDbPoint
 10
828.5579566891732
 20
1757.290126987958
 30
0.0
  0
ENDBLK
  5
A16
330
A0F
100
AcDbEntity
  8
0
100
AcDbBlockEnd
  0
BLOCK
  5
A1D
330
A17
100
AcDbEntity
  8
0
100
AcDbBlockBegin
  2
*D46
 70
     1
 10
0.0
 20
0.0
 30
0.0
  3
*D46
  1

  0
LINE
  5
C84
330
A17
100
AcDbEntity
  8
0
 62
     0
370
    -2
100
AcDbLine
 10
658.4630073583586
 20
2092.141789882473
 30
0.0
 11
599.8658662162895
 21
2123.584198345827
 31
0.0
  0
MTEXT
  5
C85
330
A17
100
AcDbEntity
  8
0
 62
     0
100
AcDbMText
 10
640.2649095537507
 20
2112.687877984443
 30
0.0
 40
15.0
 41
0.0
 46
0.0
 71
     5
 72
     1
  1
R180
 11
0.8811600171739714
 21
-0.4728181723812722
 31
0.0
 73
     1
 44
1.0
1001
ACAD
1000
MTEXTBEGIN
1070
    73
1070
     1
1070
    44
1040
1.0
1070
    74
1070
     0
1000
MTEXTEND
  0
SOLID
  5
C86
330
A17
100
AcDbEntity
  8
0
 62
     0
100
AcDbTrace
 10
601.0479116472427
 20
2125.787098388762
 30
0.0
 11
598.6838207853362
 21
2121.381298302893
 31
0.0
 12
586.6484659586799
 22
2130.676470931547
 32
0.0
 13
586.6484659586799
 23
2130.676470931547
 33
0.0
  0
POINT
  5
C87
330
A17
100
AcDbEntity
  8
Defpoints
 62
     0
100
AcDbPoint
 10
586.6484659586799
 20
2130.676470931547
 30
0.0
  0
POINT
  5
C88
330
A17
100
AcDbEntity
  8
Defpoints
 62
     0
100
AcDbPoint
 10
745.2572690499959
 20
2045.569199902917
 30
0.0
  0
ENDBLK
  5
A1E
330
A17
100
AcDbEntity
  8
0
100
AcDbBlockEnd
  0
BLOCK
  5
A25
330
A1F
100
AcDbEntity
  8
0
100
AcDbBlockBegin
  2
*D47
 70
     1
 10
0.0
 20
0.0
 30
0.0
  3
*D47
  1

  0
LINE
  5
C6B
330
A1F
100
AcDbEntity
  8
0
 62
     0
370
    -2
100
AcDbLine
 10
1246.968104202462
 20
1831.667537266397
 30
0.0
 11
1293.138461320342
 21
1794.934743694339
 31
0.0
  0
MTEXT
  5
C6C
330
A1F
100
AcDbEntity
  8
0
 62
     0
100
AcDbMText
 10
1270.098771923274
 20
1825.404773436475
 30
0.0
 40
15.0
 41
0.0
 46
0.0
 71
     5
 72
     1
  1
R75
 11
0.7825484257267805
 21
-0.6225897215603046
 31
0.0
 73
     1
 44
1.0
1001
ACAD
1000
MTEXTBEGIN
1070
    73
1070
     1
1070
    44
1040
1.0
1070
    74
1070
     0
1000
MTEXTEND
  0
SOLID
  5
C6D
330
A1F
100
AcDbEntity
  8
0
 62
     0
100
AcDbTrace
 10
1294.694935624243
 20
1796.891114758656
 30
0.0
 11
1291.581987016441
 21
1792.978372630022
 31
0.0
 12
1304.876687706244
 22
1785.595897870934
 32
0.0
 13
1304.876687706244
 23
1785.595897870934
 33
0.0
  0
POINT
  5
C6E
330
A1F
100
AcDbEntity
  8
Defpoints
 62
     0
100
AcDbPoint
 10
1304.876687706244
 20
1785.595897870934
 30
0.0
  0
POINT
  5
C6F
330
A1F
100
AcDbEntity
  8
Defpoints
 62
     0
100
AcDbPoint
 10
1246.185555776735
 20
1832.290126987957
 30
0.0
  0
ENDBLK
  5
A26
330
A1F
100
AcDbEntity
  8
0
100
AcDbBlockEnd
  0
BLOCK
  5
A2D
330
A27
100
AcDbEntity
  8
0
100
AcDbBlockBegin
  2
*D48
 70
     1
 10
0.0
 20
0.0
 30
0.0
  3
*D48
  1

  0
LINE
  5
C7A
330
A27
100
AcDbEntity
  8
0
 62
     0
370
    -2
100
AcDbLine
 10
643.612666961178
 20
1842.599834605461
 30
0.0
 11
597.878544563638
 21
1797.829419725466
 31
0.0
  0
MTEXT
  5
C7B
330
A27
100
AcDbEntity
  8
0
 62
     0
100
AcDbMText
 10
619.4594647721207
 20
1832.249818952598
 30
0.0
 40
15.0
 41
0.0
 46
0.0
 71
     5
 72
     1
  1
R100
 11
0.7145956624615547
 21
0.6995377324999216
 31
0.0
 73
     1
 44
1.0
1001
ACAD
1000
MTEXTBEGIN
1070
    73
1070
     1
1070
    44
1040
1.0
1070
    74
1070
     0
1000
MTEXTEND
  0
SOLID
  5
C7C
330
A27
100
AcDbEntity
  8
0
 62
     0
100
AcDbTrace
 10
596.1297002323882
 20
1799.61590888162
 30
0.0
 11
599.6273888948877
 21
1796.042930569312
 31
0.0
 12
587.1596096267147
 22
1787.336353737967
 32
0.0
 13
587.1596096267147
 23
1787.336353737967
 33
0.0
  0
POINT
  5
C7D
330
A27
100
AcDbEntity
  8
Defpoints
 62
     0
100
AcDbPoint
 10
587.1596096267147
 20
1787.336353737967
 30
0.0
  0
POINT
  5
C7E
330
A27
100
AcDbEntity
  8
Defpoints
 62
     0
100
AcDbPoint
 10
658.6191758728683
 20
1857.290126987957
 30
0.0
  0
ENDBLK
  5
A2E
330
A27
100
AcDbEntity
  8
0
100
AcDbBlockEnd
  0
BLOCK
  5
B55
330
B4B
100
AcDbEntity
  8
0
100
AcDbBlockBegin
  2
*D49
 70
     1
 10
0.0
 20
0.0
 30
0.0
  3
*D49
  1

  0
LINE
  5
C29
330
B4B
100
AcDbEntity
  8
图层2
 62
     0
370
    -2
100
AcDbLine
 10
1048.026861347741
 20
2162.665126987949
 30
0.0
 11
1048.026861347741
 21
2045.735956176507
 31
0.0
  0
LINE
  5
C2A
330
B4B
100
AcDbEntity
  8
图层2
 62
     0
370
    -2
100
AcDbLine
 10
1321.185555776735
 20
2041.925057888969
 30
0.0
 11
1321.185555776735
 21
2048.235956176507
 31
0.0
  0
LINE
  5
C2B
330
B4B
100
AcDbEntity
  8
图层2
 62
     0
370
    -2
100
AcDbLine
 10
1063.026861347742
 20
2046.985956176507
 30
0.0
 11
1306.185555776735
 21
2046.985956176507
 31
0.0
  0
SOLID
  5
C2C
330
B4B
100
AcDbEntity
  8
图层2
 62
     0
100
AcDbTrace
 10
1063.026861347742
 20
2049.485956176507
 30
0.0
 11
1063.026861347742
 21
2044.485956176507
 31
0.0
 12
1048.026861347741
 22
2046.985956176507
 32
0.0
 13
1048.026861347741
 23
2046.985956176507
 33
0.0
  0
SOLID
  5
C2D
330
B4B
100
AcDbEntity
  8
图层2
 62
     0
100
AcDbTrace
 10
1306.185555776735
 20
2049.485956176507
 30
0.0
 11
1306.185555776735
 21
2044.485956176507
 31
0.0
 12
1321.185555776735
 22
2046.985956176507
 32
0.0
 13
1321.185555776735
 23
2046.985956176507
 33
0.0
  0
MTEXT
  5
C2E
330
B4B
100
AcDbEntity
  8
图层2
 62
     0
100
AcDbMText
 10
1184.606208562238
 20
2057.735956176507
 30
0.0
 40
15.0
 41
0.0
 46
0.0
 71
     5
 72
     1
  1
273,16
 73
     1
 44
1.0
1001
ACAD
1000
MTEXTBEGIN
1070
    73
1070
     1
1070
    44
1040
1.0
1070
    74
1070
     0
1000
MTEXTEND
  0
POINT
  5
C2F
330
B4B
100
AcDbEntity
  8
Defpoints
 62
     0
100
AcDbPoint
 10
1048.026861347741
 20
2163.290126987948
 30
0.0
  0
POINT
  5
C30
330
B4B
100
AcDbEntity
  8
Defpoints
 62
     0
100
AcDbPoint
 10
1321.185555776735
 20
2041.300057888969
 30
0.0
  0
POINT
  5
C31
330
B4B
100
AcDbEntity
  8
Defpoints
 62
     0
100
AcDbPoint
 10
1321.185555776735
 20
2046.985956176507
 30
0.0
  0
ENDBLK
  5
B56
330
B4B
100
AcDbEntity
  8
0
100
AcDbBlockEnd
  0
BLOCK
  5
B6E
330
B64
100
AcDbEntity
  8
0
100
AcDbBlockBegin
  2
*D50
 70
     1
 10
0.0
 20
0.0
 30
0.0
  3
*D50
  1

  0
LINE
  5
D3D
330
B64
100
AcDbEntity
  8
图层2
 62
     0
370
    -2
100
AcDbLine
 10
558.6803576016111
 20
1860.162640754104
 30
0.0
 11
558.6803576016111
 21
1675.926666349336
 31
0.0
  0
LINE
  5
D3E
330
B64
100
AcDbEntity
  8
图层2
 62
     0
370
    -2
100
AcDbLine
 10
1321.185555776735
 20
1831.665126987958
 30
0.0
 11
1321.185555776735
 21
1675.926666349336
 31
0.0
  0
LINE
  5
D3F
330
B64
100
AcDbEntity
  8
图层2
 62
     0
370
    -2
100
AcDbLine
 10
573.6803576016111
 20
1677.176666349336
 30
0.0
 11
1306.185555776735
 21
1677.176666349336
 31
0.0
  0
SOLID
  5
D40
330
B64
100
AcDbEntity
  8
图层2
 62
     0
100
AcDbTrace
 10
573.6803576016111
 20
1679.676666349336
 30
0.0
 11
573.6803576016111
 21
1674.676666349335
 31
0.0
 12
558.6803576016111
 22
1677.176666349336
 32
0.0
 13
558.6803576016111
 23
1677.176666349336
 33
0.0
  0
SOLID
  5
D41
330
B64
100
AcDbEntity
  8
图层2
 62
     0
100
AcDbTrace
 10
1306.185555776735
 20
1679.676666349336
 30
0.0
 11
1306.185555776735
 21
1674.676666349335
 31
0.0
 12
1321.185555776735
 22
1677.176666349336
 32
0.0
 13
1321.185555776735
 23
1677.176666349336
 33
0.0
  0
MTEXT
  5
D42
330
B64
100
AcDbEntity
  8
图层2
 62
     0
100
AcDbMText
 10
939.9329566891733
 20
1686.676666349336
 30
0.0
 40
15.0
 41
0.0
 46
0.0
 71
     5
 72
     1
  1
763(30")
 73
     1
 44
1.0
1001
ACAD
1000
MTEXTBEGIN
1070
    73
1070
     1
1070
    44
1040
1.0
1070
    74
1070
     0
1000
MTEXTEND
  0
POINT
  5
D43
330
B64
100
AcDbEntity
  8
Defpoints
 62
     0
100
AcDbPoint
 10
558.6803576016111
 20
1860.787640754104
 30
0.0
  0
POINT
  5
D44
330
B64
100
AcDbEntity
  8
Defpoints
 62
     0
100
AcDbPoint
 10
1321.185555776735
 20
1832.290126987958
 30
0.0
  0
POINT
  5
D45
330
B64
100
AcDbEntity
  8
Defpoints
 62
     0
100
AcDbPoint
 10
1321.185555776735
 20
1677.176666349336
 30
0.0
  0
ENDBLK
  5
B6F
330
B64
100
AcDbEntity
  8
0
100
AcDbBlockEnd
  0
BLOCK
  5
B86
330
B7C
100
AcDbEntity
  8
0
100
AcDbBlockBegin
  2
*D51
 70
     1
 10
0.0
 20
0.0
 30
0.0
  3
*D51
  1

  0
LINE
  5
D34
330
B7C
100
AcDbEntity
  8
图层2
 62
     0
370
    -2
100
AcDbLine
 10
533.2803576016097
 20
1804.6831971998
 30
0.0
 11
533.2803576016097
 21
1636.234107178446
 31
0.0
  0
LINE
  5
D35
330
B7C
100
AcDbEntity
  8
图层2
 62
     0
370
    -2
100
AcDbLine
 10
1346.585555776735
 20
1790.078085325699
 30
0.0
 11
1346.585555776735
 21
1636.234107178446
 31
0.0
  0
LINE
  5
D36
330
B7C
100
AcDbEntity
  8
图层2
 62
     0
370
    -2
100
AcDbLine
 10
548.2803576016096
 20
1637.484107178446
 30
0.0
 11
1331.585555776735
 21
1637.484107178446
 31
0.0
  0
SOLID
  5
D37
330
B7C
100
AcDbEntity
  8
图层2
 62
     0
100
AcDbTrace
 10
548.2803576016096
 20
1639.984107178446
 30
0.0
 11
548.2803576016096
 21
1634.984107178446
 31
0.0
 12
533.2803576016097
 22
1637.484107178446
 32
0.0
 13
533.2803576016097
 23
1637.484107178446
 33
0.0
  0
SOLID
  5
D38
330
B7C
100
AcDbEntity
  8
图层2
 62
     0
100
AcDbTrace
 10
1331.585555776735
 20
1639.984107178446
 30
0.0
 11
1331.585555776735
 21
1634.984107178446
 31
0.0
 12
1346.585555776735
 22
1637.484107178446
 32
0.0
 13
1346.585555776735
 23
1637.484107178446
 33
0.0
  0
MTEXT
  5
D39
330
B7C
100
AcDbEntity
  8
图层2
 62
     0
100
AcDbMText
 10
939.9329566891722
 20
1646.984107178446
 30
0.0
 40
15.0
 41
0.0
 46
0.0
 71
     5
 72
     1
  1
813(32")
 73
     1
 44
1.0
1001
ACAD
1000
MTEXTBEGIN
1070
    73
1070
     1
1070
    44
1040
1.0
1070
    74
1070
     0
1000
MTEXTEND
  0
POINT
  5
D3A
330
B7C
100
AcDbEntity
  8
Defpoints
 62
     0
100
AcDbPoint
 10
533.2803576016097
 20
1805.3081971998
 30
0.0
  0
POINT
  5
D3B
330
B7C
100
AcDbEntity
  8
Defpoints
 62
     0
100
AcDbPoint
 10
1346.585555776735
 20
1790.703085325699
 30
0.0
  0
POINT
  5
D3C
330
B7C
100
AcDbEntity
  8
Defpoints
 62
     0
100
AcDbPoint
 10
1346.585555776735
 20
1637.484107178446
 30
0.0
  0
ENDBLK
  5
B87
330
B7C
100
AcDbEntity
  8
0
100
AcDbBlockEnd
  0
BLOCK
  5
B9E
330
B94
100
AcDbEntity
  8
0
100
AcDbBlockBegin
  2
*D52
 70
     1
 10
0.0
 20
0.0
 30
0.0
  3
*D52
  1

  0
LINE
  5
D0D
330
B94
100
AcDbEntity
  8
图层2
 62
     0
370
    -2
100
AcDbLine
 10
827.9329566891862
 20
2237.363165500031
 30
0.0
 11
483.0545055114618
 21
2237.363165500031
 31
0.0
  0
LINE
  5
D0E
330
B94
100
AcDbEntity
  8
图层2
 62
     0
370
    -2
100
AcDbLine
 10
657.9941758728685
 20
1757.290126987958
 30
0.0
 11
483.0545055114618
 21
1757.290126987958
 31
0.0
  0
LINE
  5
D0F
330
B94
100
AcDbEntity
  8
图层2
 62
     0
370
    -2
100
AcDbLine
 10
484.3045055114618
 20
2222.363165500031
 30
0.0
 11
484.3045055114617
 21
1772.290126987958
 31
0.0
  0
SOLID
  5
D10
330
B94
100
AcDbEntity
  8
图层2
 62
     0
100
AcDbTrace
 10
481.8045055114618
 20
2222.363165500031
 30
0.0
 11
486.8045055114619
 21
2222.363165500031
 31
0.0
 12
484.3045055114618
 22
2237.363165500031
 32
0.0
 13
484.3045055114618
 23
2237.363165500031
 33
0.0
  0
SOLID
  5
D11
330
B94
100
AcDbEntity
  8
图层2
 62
     0
100
AcDbTrace
 10
481.8045055114618
 20
1772.290126987958
 30
0.0
 11
486.8045055114618
 21
1772.290126987958
 31
0.0
 12
484.3045055114617
 22
1757.290126987958
 32
0.0
 13
484.3045055114617
 23
1757.290126987958
 33
0.0
  0
MTEXT
  5
D12
330
B94
100
AcDbEntity
  8
图层2
 62
     0
100
AcDbMText
 10
474.8045055114615
 20
1997.326646243994
 30
0.0
 40
15.0
 41
0.0
 46
0.0
 71
     5
 72
     1
  1
480(18-7/8")
 11
0.0000000000000001
 21
1.0
 31
0.0
 73
     1
 44
1.0
1001
ACAD
1000
MTEXTBEGIN
1070
    73
1070
     1
1070
    44
1040
1.0
1070
    74
1070
     0
1000
MTEXTEND
  0
POINT
  5
D13
330
B94
100
AcDbEntity
  8
Defpoints
 62
     0
100
AcDbPoint
 10
828.5579566891865
 20
2237.363165500031
 30
0.0
  0
POINT
  5
D14
330
B94
100
AcDbEntity
  8
Defpoints
 62
     0
100
AcDbPoint
 10
658.6191758728687
 20
1757.290126987958
 30
0.0
  0
POINT
  5
D15
330
B94
100
AcDbEntity
  8
Defpoints
 62
     0
100
AcDbPoint
 10
484.3045055114617
 20
1757.290126987958
 30
0.0
  0
ENDBLK
  5
B9F
330
B94
100
AcDbEntity
  8
0
100
AcDbBlockEnd
  0
BLOCK
  5
BB6
330
BAC
100
AcDbEntity
  8
0
100
AcDbBlockBegin
  2
*D53
 70
     1
 10
0.0
 20
0.0
 30
0.0
  3
*D53
  1

  0
LINE
  5
D16
330
BAC
100
AcDbEntity
  8
图层2
 62
     0
370
    -2
100
AcDbLine
 10
652.6553576016099
 20
2262.763165500031
 30
0.0
 11
420.8792813101554
 21
2262.763165500031
 31
0.0
  0
LINE
  5
D17
330
BAC
100
AcDbEntity
  8
图层2
 62
     0
370
    -2
100
AcDbLine
 10
606.0734278134523
 20
1731.890126987958
 30
0.0
 11
420.8792813101553
 21
1731.890126987958
 31
0.0
  0
LINE
  5
D18
330
BAC
100
AcDbEntity
  8
图层2
 62
     0
370
    -2
100
AcDbLine
 10
422.1292813101555
 20
2247.763165500031
 30
0.0
 11
422.1292813101554
 21
1746.890126987958
 31
0.0
  0
SOLID
  5
D19
330
BAC
100
AcDbEntity
  8
图层2
 62
     0
100
AcDbTrace
 10
419.6292813101554
 20
2247.763165500031
 30
0.0
 11
424.6292813101554
 21
2247.763165500031
 31
0.0
 12
422.1292813101555
 22
2262.763165500031
 32
0.0
 13
422.1292813101555
 23
2262.763165500031
 33
0.0
  0
SOLID
  5
D1A
330
BAC
100
AcDbEntity
  8
图层2
 62
     0
100
AcDbTrace
 10
419.6292813101554
 20
1746.890126987958
 30
0.0
 11
424.6292813101554
 21
1746.890126987958
 31
0.0
 12
422.1292813101554
 22
1731.890126987958
 32
0.0
 13
422.1292813101554
 23
1731.890126987958
 33
0.0
  0
MTEXT
  5
D1B
330
BAC
100
AcDbEntity
  8
图层2
 62
     0
100
AcDbMText
 10
412.629281310155
 20
1997.326646243994
 30
0.0
 40
15.0
 41
0.0
 46
0.0
 71
     5
 72
     1
  1
530(20-7/8")
 11
0.0000000000000001
 21
1.0
 31
0.0
 73
     1
 44
1.0
1001
ACAD
1000
MTEXTBEGIN
1070
    73
1070
     1
1070
    44
1040
1.0
1070
    74
1070
     0
1000
MTEXTEND
  0
POINT
  5
D1C
330
BAC
100
AcDbEntity
  8
Defpoints
 62
     0
100
AcDbPoint
 10
653.2803576016099
 20
2262.763165500031
 30
0.0
  0
POINT
  5
D1D
330
BAC
100
AcDbEntity
  8
Defpoints
 62
     0
100
AcDbPoint
 10
606.6984278134523
 20
1731.890126987958
 30
0.0
  0
POINT
  5
D1E
330
BAC
100
AcDbEntity
  8
Defpoints
 62
     0
100
AcDbPoint
 10
422.1292813101554
 20
1731.890126987958
 30
0.0
  0
ENDBLK
  5
BB7
330
BAC
100
AcDbEntity
  8
0
100
AcDbBlockEnd
  0
BLOCK
  5
BCE
330
BC4
100
AcDbEntity
  8
0
100
AcDbBlockBegin
  2
*D54
 70
     1
 10
0.0
 20
0.0
 30
0.0
  3
*D54
  1

  0
LINE
  5
CF7
330
BC4
100
AcDbEntity
  8
图层2
 62
     0
370
    -2
100
AcDbLine
 10
1246.810555776735
 20
2163.290126987959
 30
0.0
 11
1412.177248048816
 21
2163.290126987959
 31
0.0
  0
LINE
  5
CF8
330
BC4
100
AcDbEntity
  8
图层2
 62
     0
370
    -2
100
AcDbLine
 10
1246.810555776735
 20
1757.290126987958
 30
0.0
 11
1412.177248048816
 21
1757.290126987958
 31
0.0
  0
LINE
  5
CF9
330
BC4
100
AcDbEntity
  8
图层2
 62
     0
370
    -2
100
AcDbLine
 10
1410.927248048816
 20
2148.290126987959
 30
0.0
 11
1410.927248048816
 21
1772.290126987958
 31
0.0
  0
SOLID
  5
CFA
330
BC4
100
AcDbEntity
  8
图层2
 62
     0
100
AcDbTrace
 10
1408.427248048816
 20
2148.290126987959
 30
0.0
 11
1413.427248048816
 21
2148.290126987959
 31
0.0
 12
1410.927248048816
 22
2163.290126987959
 32
0.0
 13
1410.927248048816
 23
2163.290126987959
 33
0.0
  0
SOLID
  5
CFB
330
BC4
100
AcDbEntity
  8
图层2
 62
     0
100
AcDbTrace
 10
1408.427248048816
 20
1772.290126987958
 30
0.0
 11
1413.427248048816
 21
1772.290126987958
 31
0.0
 12
1410.927248048816
 22
1757.290126987958
 32
0.0
 13
1410.927248048816
 23
1757.290126987958
 33
0.0
  0
MTEXT
  5
CFC
330
BC4
100
AcDbEntity
  8
图层2
 62
     0
100
AcDbMText
 10
1401.427248048816
 20
1960.290126987958
 30
0.0
 40
15.0
 41
0.0
 46
0.0
 71
     5
 72
     1
  1
406(16")
 11
0.0000000000000001
 21
1.0
 31
0.0
 73
     1
 44
1.0
1001
ACAD
1000
MTEXTBEGIN
1070
    73
1070
     1
1070
    44
1040
1.0
1070
    74
1070
     0
1000
MTEXTEND
  0
POINT
  5
CFD
330
BC4
100
AcDbEntity
  8
Defpoints
 62
     0
100
AcDbPoint
 10
1246.185555776735
 20
2163.290126987959
 30
0.0
  0
POINT
  5
CFE
330
BC4
100
AcDbEntity
  8
Defpoints
 62
     0
100
AcDbPoint
 10
1246.185555776735
 20
1757.290126987958
 30
0.0
  0
POINT
  5
CFF
330
BC4
100
AcDbEntity
  8
Defpoints
 62
     0
100
AcDbPoint
 10
1410.927248048816
 20
1757.290126987958
 30
0.0
  0
ENDBLK
  5
BCF
330
BC4
100
AcDbEntity
  8
0
100
AcDbBlockEnd
  0
BLOCK
  5
BE6
330
BDC
100
AcDbEntity
  8
0
100
AcDbBlockBegin
  2
*D55
 70
     1
 10
0.0
 20
0.0
 30
0.0
  3
*D55
  1

  0
LINE
  5
D00
330
BDC
100
AcDbEntity
  8
图层2
 62
     0
370
    -2
100
AcDbLine
 10
1288.397597438994
 20
2188.690126987959
 30
0.0
 11
1481.934804614795
 21
2188.690126987959
 31
0.0
  0
LINE
  5
D01
330
BDC
100
AcDbEntity
  8
图层2
 62
     0
370
    -2
100
AcDbLine
 10
1288.397597438994
 20
1731.890126987958
 30
0.0
 11
1481.934804614795
 21
1731.890126987958
 31
0.0
  0
LINE
  5
D02
330
BDC
100
AcDbEntity
  8
图层2
 62
     0
370
    -2
100
AcDbLine
 10
1480.684804614795
 20
2173.690126987959
 30
0.0
 11
1480.684804614795
 21
1746.890126987957
 31
0.0
  0
SOLID
  5
D03
330
BDC
100
AcDbEntity
  8
图层2
 62
     0
100
AcDbTrace
 10
1478.184804614795
 20
2173.690126987959
 30
0.0
 11
1483.184804614795
 21
2173.690126987959
 31
0.0
 12
1480.684804614795
 22
2188.690126987959
 32
0.0
 13
1480.684804614795
 23
2188.690126987959
 33
0.0
  0
SOLID
  5
D04
330
BDC
100
AcDbEntity
  8
图层2
 62
     0
100
AcDbTrace
 10
1478.184804614795
 20
1746.890126987957
 30
0.0
 11
1483.184804614795
 21
1746.890126987957
 31
0.0
 12
1480.684804614795
 22
1731.890126987958
 32
0.0
 13
1480.684804614795
 23
1731.890126987958
 33
0.0
  0
MTEXT
  5
D05
330
BDC
100
AcDbEntity
  8
图层2
 62
     0
100
AcDbMText
 10
1471.184804614795
 20
1960.290126987959
 30
0.0
 40
15.0
 41
0.0
 46
0.0
 71
     5
 72
     1
  1
457(18")
 11
0.0000000000000001
 21
1.0
 31
0.0
 73
     1
 44
1.0
1001
ACAD
1000
MTEXTBEGIN
1070
    73
1070
     1
1070
    44
1040
1.0
1070
    74
1070
     0
1000
MTEXTEND
  0
POINT
  5
D06
330
BDC
100
AcDbEntity
  8
Defpoints
 62
     0
100
AcDbPoint
 10
1287.772597438993
 20
2188.690126987959
 30
0.0
  0
POINT
  5
D07
330
BDC
100
AcDbEntity
  8
Defpoints
 62
     0
100
AcDbPoint
 10
1287.772597438993
 20
1731.890126987958
 30
0.0
  0
POINT
  5
D08
330
BDC
100
AcDbEntity
  8
Defpoints
 62
     0
100
AcDbPoint
 10
1480.684804614795
 20
1731.890126987958
 30
0.0
  0
ENDBLK
  5
BE7
330
BDC
100
AcDbEntity
  8
0
100
AcDbBlockEnd
  0
BLOCK
  5
FE7
330
FDD
100
AcDbEntity
  8
0
100
AcDbBlockBegin
  2
*D56
 70
     1
 10
0.0
 20
0.0
 30
0.0
  3
*D56
  1

  0
LINE
  5
FEA
330
FDD
100
AcDbEntity
  8
图层2
 62
     0
370
    -2
100
AcDbLine
 10
488.9100222652324
 20
-893.2945122814723
 30
0.0
 11
488.9100222652324
 21
-1047.478312078639
 31
0.0
  0
LINE
  5
FEB
330
FDD
100
AcDbEntity
  8
图层2
 62
     0
370
    -2
100
AcDbLine
 10
1259.412773171208
 20
-893.2945122814723
 30
0.0
 11
1259.412773171208
 21
-1047.478312078639
 31
0.0
  0
LINE
  5
FEC
330
FDD
100
AcDbEntity
  8
图层2
 62
     0
370
    -2
100
AcDbLine
 10
503.9100222652323
 20
-1046.228312078639
 30
0.0
 11
1244.412773171208
 21
-1046.228312078639
 31
0.0
  0
SOLID
  5
FED
330
FDD
100
AcDbEntity
  8
图层2
 62
     0
100
AcDbTrace
 10
503.9100222652323
 20
-1043.72831207864
 30
0.0
 11
503.9100222652323
 21
-1048.728312078639
 31
0.0
 12
488.9100222652324
 22
-1046.228312078639
 32
0.0
 13
488.9100222652324
 23
-1046.228312078639
 33
0.0
  0
SOLID
  5
FEE
330
FDD
100
AcDbEntity
  8
图层2
 62
     0
100
AcDbTrace
 10
1244.412773171208
 20
-1043.72831207864
 30
0.0
 11
1244.412773171208
 21
-1048.728312078639
 31
0.0
 12
1259.412773171208
 22
-1046.228312078639
 32
0.0
 13
1259.412773171208
 23
-1046.228312078639
 33
0.0
  0
MTEXT
  5
FEF
330
FDD
100
AcDbEntity
  8
图层2
 62
     0
100
AcDbMText
 10
874.1613977182202
 20
-1035.478312078639
 30
0.0
 40
15.0
 41
0.0
 46
0.0
 71
     5
 72
     1
  1
770,5
 73
     1
 44
1.0
1001
ACAD
1000
MTEXTBEGIN
1070
    73
1070
     1
1070
    44
1040
1.0
1070
    74
1070
     0
1000
MTEXTEND
  0
POINT
  5
FF0
330
FDD
100
AcDbEntity
  8
Defpoints
 62
     0
100
AcDbPoint
 10
488.9100222652324
 20
-892.6695122814722
 30
0.0
  0
POINT
  5
FF1
330
FDD
100
AcDbEntity
  8
Defpoints
 62
     0
100
AcDbPoint
 10
1259.412773171208
 20
-892.6695122814722
 30
0.0
  0
POINT
  5
FF2
330
FDD
100
AcDbEntity
  8
Defpoints
 62
     0
100
AcDbPoint
 10
1259.412773171208
 20
-1046.228312078639
 30
0.0
  0
ENDBLK
  5
FE8
330
FDD
100
AcDbEntity
  8
0
100
AcDbBlockEnd
  0
BLOCK
  5
FFF
330
FF5
100
AcDbEntity
  8
0
100
AcDbBlockBegin
  2
*D57
 70
     1
 10
0.0
 20
0.0
 30
0.0
  3
*D57
  1

  0
LINE
  5
1002
330
FF5
100
AcDbEntity
  8
图层2
 62
     0
370
    -2
100
AcDbLine
 10
481.9143049862441
 20
-893.0496863178426
 30
0.0
 11
481.9143049862441
 21
-1085.911667862134
 31
0.0
  0
LINE
  5
1003
330
FF5
100
AcDbEntity
  8
图层2
 62
     0
370
    -2
100
AcDbLine
 10
1266.412773171208
 20
-921.9319265982555
 30
0.0
 11
1266.412773171208
 21
-1085.911667862134
 31
0.0
  0
LINE
  5
1004
330
FF5
100
AcDbEntity
  8
图层2
 62
     0
370
    -2
100
AcDbLine
 10
496.9143049862442
 20
-1084.661667862134
 30
0.0
 11
1251.412773171208
 21
-1084.661667862134
 31
0.0
  0
SOLID
  5
1005
330
FF5
100
AcDbEntity
  8
图层2
 62
     0
100
AcDbTrace
 10
496.9143049862442
 20
-1082.161667862134
 30
0.0
 11
496.9143049862442
 21
-1087.161667862134
 31
0.0
 12
481.9143049862441
 22
-1084.661667862134
 32
0.0
 13
481.9143049862441
 23
-1084.661667862134
 33
0.0
  0
SOLID
  5
1006
330
FF5
100
AcDbEntity
  8
图层2
 62
     0
100
AcDbTrace
 10
1251.412773171208
 20
-1082.161667862134
 30
0.0
 11
1251.412773171208
 21
-1087.161667862134
 31
0.0
 12
1266.412773171208
 22
-1084.661667862134
 32
0.0
 13
1266.412773171208
 23
-1084.661667862134
 33
0.0
  0
MTEXT
  5
1007
330
FF5
100
AcDbEntity
  8
图层2
 62
     0
100
AcDbMText
 10
874.1635390787262
 20
-1073.911667862134
 30
0.0
 40
15.0
 41
0.0
 46
0.0
 71
     5
 72
     1
  1
784,5
 73
     1
 44
1.0
1001
ACAD
1000
MTEXTBEGIN
1070
    73
1070
     1
1070
    44
1040
1.0
1070
    74
1070
     0
1000
MTEXTEND
  0
POINT
  5
1008
330
FF5
100
AcDbEntity
  8
Defpoints
 62
     0
100
AcDbPoint
 10
481.9143049862441
 20
-892.4246863178426
 30
0.0
  0
POINT
  5
1009
330
FF5
100
AcDbEntity
  8
Defpoints
 62
     0
100
AcDbPoint
 10
1266.412773171208
 20
-921.3069265982554
 30
0.0
  0
POINT
  5
100A
330
FF5
100
AcDbEntity
  8
Defpoints
 62
     0
100
AcDbPoint
 10
1266.412773171208
 20
-1084.661667862134
 30
0.0
  0
ENDBLK
  5
1000
330
FF5
100
AcDbEntity
  8
0
100
AcDbBlockEnd
  0
BLOCK
  5
1017
330
100D
100
AcDbEntity
  8
0
100
AcDbBlockBegin
  2
*D58
 70
     1
 10
0.0
 20
0.0
 30
0.0
  3
*D58
  1

  0
LINE
  5
101A
330
100D
100
AcDbEntity
  8
图层2
 62
     0
370
    -2
100
AcDbLine
 10
762.1601740836459
 20
-512.233888086183
 30
0.0
 11
423.919927138353
 21
-512.233888086183
 31
0.0
  0
LINE
  5
101B
330
100D
100
AcDbEntity
  8
图层2
 62
     0
370
    -2
100
AcDbLine
 10
592.2213932673413
 20
-1000.306926598256
 30
0.0
 11
423.919927138353
 21
-1000.306926598256
 31
0.0
  0
LINE
  5
101C
330
100D
100
AcDbEntity
  8
图层2
 62
     0
370
    -2
100
AcDbLine
 10
425.1699271383531
 20
-527.233888086183
 30
0.0
 11
425.1699271383531
 21
-985.3069265982556
 31
0.0
  0
SOLID
  5
101D
330
100D
100
AcDbEntity
  8
图层2
 62
     0
100
AcDbTrace
 10
422.6699271383532
 20
-527.233888086183
 30
0.0
 11
427.6699271383532
 21
-527.233888086183
 31
0.0
 12
425.1699271383531
 22
-512.233888086183
 32
0.0
 13
425.1699271383531
 23
-512.233888086183
 33
0.0
  0
SOLID
  5
101E
330
100D
100
AcDbEntity
  8
图层2
 62
     0
100
AcDbTrace
 10
422.6699271383529
 20
-985.3069265982556
 30
0.0
 11
427.6699271383531
 21
-985.3069265982556
 31
0.0
 12
425.1699271383531
 22
-1000.306926598256
 32
0.0
 13
425.1699271383531
 23
-1000.306926598256
 33
0.0
  0
MTEXT
  5
101F
330
100D
100
AcDbEntity
  8
图层2
 62
     0
100
AcDbMText
 10
414.4199271383532
 20
-756.2704073422191
 30
0.0
 40
15.0
 41
0.0
 46
0.0
 71
     5
 72
     1
  1
488,07
 11
0.0000000000000001
 21
1.0
 31
0.0
 73
     1
 44
1.0
1001
ACAD
1000
MTEXTBEGIN
1070
    73
1070
     1
1070
    44
1040
1.0
1070
    74
1070
     0
1000
MTEXTEND
  0
POINT
  5
1020
330
100D
100
AcDbEntity
  8
Defpoints
 62
     0
100
AcDbPoint
 10
762.7851740836461
 20
-512.233888086183
 30
0.0
  0
POINT
  5
1021
330
100D
100
AcDbEntity
  8
Defpoints
 62
     0
100
AcDbPoint
 10
592.8463932673413
 20
-1000.306926598256
 30
0.0
  0
POINT
  5
1022
330
100D
100
AcDbEntity
  8
Defpoints
 62
     0
100
AcDbPoint
 10
425.1699271383531
 20
-1000.306926598256
 30
0.0
  0
ENDBLK
  5
1018
330
100D
100
AcDbEntity
  8
0
100
AcDbBlockEnd
  0
BLOCK
  5
102F
330
1025
100
AcDbEntity
  8
0
100
AcDbBlockBegin
  2
*D59
 70
     1
 10
0.0
 20
0.0
 30
0.0
  3
*D59
  1

  0
LINE
  5
1032
330
1025
100
AcDbEntity
  8
图层2
 62
     0
370
    -2
100
AcDbLine
 10
762.1601740836459
 20
-505.2338880861828
 30
0.0
 11
373.7732764597914
 21
-505.2338880861827
 31
0.0
  0
LINE
  5
1033
330
1025
100
AcDbEntity
  8
图层2
 62
     0
370
    -2
100
AcDbLine
 10
592.2213932673413
 20
-1007.306926598256
 30
0.0
 11
373.7732764597914
 21
-1007.306926598256
 31
0.0
  0
LINE
  5
1034
330
1025
100
AcDbEntity
  8
图层2
 62
     0
370
    -2
100
AcDbLine
 10
375.0232764597914
 20
-520.2338880861828
 30
0.0
 11
375.0232764597914
 21
-992.3069265982558
 31
0.0
  0
SOLID
  5
1035
330
1025
100
AcDbEntity
  8
图层2
 62
     0
100
AcDbTrace
 10
372.5232764597914
 20
-520.2338880861828
 30
0.0
 11
377.5232764597914
 21
-520.2338880861828
 31
0.0
 12
375.0232764597914
 22
-505.2338880861827
 32
0.0
 13
375.0232764597914
 23
-505.2338880861827
 33
0.0
  0
SOLID
  5
1036
330
1025
100
AcDbEntity
  8
图层2
 62
     0
100
AcDbTrace
 10
372.5232764597913
 20
-992.3069265982558
 30
0.0
 11
377.5232764597914
 21
-992.3069265982558
 31
0.0
 12
375.0232764597914
 22
-1007.306926598256
 32
0.0
 13
375.0232764597914
 23
-1007.306926598256
 33
0.0
  0
MTEXT
  5
1037
330
1025
100
AcDbEntity
  8
图层2
 62
     0
100
AcDbMText
 10
364.2732764597915
 20
-756.2704073422191
 30
0.0
 40
15.0
 41
0.0
 46
0.0
 71
     5
 72
     1
  1
502,07
 11
0.0000000000000001
 21
1.0
 31
0.0
 73
     1
 44
1.0
1001
ACAD
1000
MTEXTBEGIN
1070
    73
1070
     1
1070
    44
1040
1.0
1070
    74
1070
     0
1000
MTEXTEND
  0
POINT
  5
1038
330
1025
100
AcDbEntity
  8
Defpoints
 62
     0
100
AcDbPoint
 10
762.7851740836461
 20
-505.2338880861828
 30
0.0
  0
POINT
  5
1039
330
1025
100
AcDbEntity
  8
Defpoints
 62
     0
100
AcDbPoint
 10
592.8463932673413
 20
-1007.306926598256
 30
0.0
  0
POINT
  5
103A
330
1025
100
AcDbEntity
  8
Defpoints
 62
     0
100
AcDbPoint
 10
375.0232764597914
 20
-1007.306926598256
 30
0.0
  0
ENDBLK
  5
1030
330
1025
100
AcDbEntity
  8
0
100
AcDbBlockEnd
  0
BLOCK
  5
1047
330
103D
100
AcDbEntity
  8
0
100
AcDbBlockBegin
  2
*D60
 70
     1
 10
0.0
 20
0.0
 30
0.0
  3
*D60
  1

  0
LINE
  5
104A
330
103D
100
AcDbEntity
  8
图层2
 62
     0
370
    -2
100
AcDbLine
 10
1181.037773171208
 20
-586.306926598255
 30
0.0
 11
1315.775772798433
 21
-586.3069265982551
 31
0.0
  0
LINE
  5
104B
330
103D
100
AcDbEntity
  8
图层2
 62
     0
370
    -2
100
AcDbLine
 10
1140.037773171208
 20
-1000.306926598255
 30
0.0
 11
1315.775772798433
 21
-1000.306926598256
 31
0.0
  0
LINE
  5
104C
330
103D
100
AcDbEntity
  8
图层2
 62
     0
370
    -2
100
AcDbLine
 10
1314.525772798433
 20
-601.3069265982551
 30
0.0
 11
1314.525772798433
 21
-985.3069265982556
 31
0.0
  0
SOLID
  5
104D
330
103D
100
AcDbEntity
  8
图层2
 62
     0
100
AcDbTrace
 10
1312.025772798433
 20
-601.3069265982551
 30
0.0
 11
1317.025772798433
 21
-601.3069265982551
 31
0.0
 12
1314.525772798433
 22
-586.3069265982551
 32
0.0
 13
1314.525772798433
 23
-586.3069265982551
 33
0.0
  0
SOLID
  5
104E
330
103D
100
AcDbEntity
  8
图层2
 62
     0
100
AcDbTrace
 10
1312.025772798433
 20
-985.3069265982556
 30
0.0
 11
1317.025772798433
 21
-985.3069265982556
 31
0.0
 12
1314.525772798433
 22
-1000.306926598256
 32
0.0
 13
1314.525772798433
 23
-1000.306926598256
 33
0.0
  0
MTEXT
  5
104F
330
103D
100
AcDbEntity
  8
图层2
 62
     0
100
AcDbMText
 10
1305.025772798434
 20
-793.3069265982551
 30
0.0
 40
15.0
 41
0.0
 46
0.0
 71
     5
 72
     1
  1
414
 11
0.0000000000000001
 21
1.0
 31
0.0
 73
     1
 44
1.0
1001
ACAD
1000
MTEXTBEGIN
1070
    73
1070
     1
1070
    44
1040
1.0
1070
    74
1070
     0
1000
MTEXTEND
  0
POINT
  5
1050
330
103D
100
AcDbEntity
  8
Defpoints
 62
     0
100
AcDbPoint
 10
1180.412773171208
 20
-586.306926598255
 30
0.0
  0
POINT
  5
1051
330
103D
100
AcDbEntity
  8
Defpoints
 62
     0
100
AcDbPoint
 10
1139.412773171208
 20
-1000.306926598255
 30
0.0
  0
POINT
  5
1052
330
103D
100
AcDbEntity
  8
Defpoints
 62
     0
100
AcDbPoint
 10
1314.525772798433
 20
-1000.306926598256
 30
0.0
  0
ENDBLK
  5
1048
330
103D
100
AcDbEntity
  8
0
100
AcDbBlockEnd
  0
BLOCK
  5
105F
330
1055
100
AcDbEntity
  8
0
100
AcDbBlockBegin
  2
*D61
 70
     1
 10
0.0
 20
0.0
 30
0.0
  3
*D61
  1

  0
LINE
  5
1062
330
1055
100
AcDbEntity
  8
图层2
 62
     0
370
    -2
100
AcDbLine
 10
1181.037773171208
 20
-579.306926598255
 30
0.0
 11
1351.534754781654
 21
-579.3069265982551
 31
0.0
  0
LINE
  5
1063
330
1055
100
AcDbEntity
  8
图层2
 62
     0
370
    -2
100
AcDbLine
 10
1140.037773171208
 20
-1007.306926598255
 30
0.0
 11
1351.534754781654
 21
-1007.306926598255
 31
0.0
  0
LINE
  5
1064
330
1055
100
AcDbEntity
  8
图层2
 62
     0
370
    -2
100
AcDbLine
 10
1350.284754781654
 20
-594.3069265982551
 30
0.0
 11
1350.284754781654
 21
-992.3069265982556
 31
0.0
  0
SOLID
  5
1065
330
1055
100
AcDbEntity
  8
图层2
 62
     0
100
AcDbTrace
 10
1347.784754781655
 20
-594.3069265982551
 30
0.0
 11
1352.784754781654
 21
-594.3069265982551
 31
0.0
 12
1350.284754781654
 22
-579.3069265982551
 32
0.0
 13
1350.284754781654
 23
-579.3069265982551
 33
0.0
  0
SOLID
  5
1066
330
1055
100
AcDbEntity
  8
图层2
 62
     0
100
AcDbTrace
 10
1347.784754781655
 20
-992.3069265982556
 30
0.0
 11
1352.784754781654
 21
-992.3069265982556
 31
0.0
 12
1350.284754781654
 22
-1007.306926598255
 32
0.0
 13
1350.284754781654
 23
-1007.306926598255
 33
0.0
  0
MTEXT
  5
1067
330
1055
100
AcDbEntity
  8
图层2
 62
     0
100
AcDbMText
 10
1340.784754781655
 20
-793.3069265982551
 30
0.0
 40
15.0
 41
0.0
 46
0.0
 71
     5
 72
     1
  1
428
 11
0.0000000000000001
 21
1.0
 31
0.0
 73
     1
 44
1.0
1001
ACAD
1000
MTEXTBEGIN
1070
    73
1070
     1
1070
    44
1040
1.0
1070
    74
1070
     0
1000
MTEXTEND
  0
POINT
  5
1068
330
1055
100
AcDbEntity
  8
Defpoints
 62
     0
100
AcDbPoint
 10
1180.412773171208
 20
-579.306926598255
 30
0.0
  0
POINT
  5
1069
330
1055
100
AcDbEntity
  8
Defpoints
 62
     0
100
AcDbPoint
 10
1139.412773171208
 20
-1007.306926598255
 30
0.0
  0
POINT
  5
106A
330
1055
100
AcDbEntity
  8
Defpoints
 62
     0
100
AcDbPoint
 10
1350.284754781654
 20
-1007.306926598255
 30
0.0
  0
ENDBLK
  5
1060
330
1055
100
AcDbEntity
  8
0
100
AcDbBlockEnd
  0
BLOCK
  5
1073
330
106D
100
AcDbEntity
  8
0
100
AcDbBlockBegin
  2
*D62
 70
     1
 10
0.0
 20
0.0
 30
0.0
  3
*D62
  1

  0
LINE
  5
1076
330
106D
100
AcDbEntity
  8
图层2
 62
     0
370
    -2
100
AcDbLine
 10
1184.314372649
 20
-662.1800237352134
 30
0.0
 11
1230.353246486944
 21
-625.2825699513297
 31
0.0
  0
MTEXT
  5
1077
330
106D
100
AcDbEntity
  8
图层2
 62
     0
100
AcDbMText
 10
1195.540294911506
 20
-641.0086121300287
 30
0.0
 40
15.0
 41
0.0
 46
0.0
 71
     5
 72
     1
  1
R79
 11
0.7803198955583781
 21
0.6253805726082015
 31
0.0
 73
     1
 44
1.0
1001
ACAD
1000
MTEXTBEGIN
1070
    73
1070
     1
1070
    44
1040
1.0
1070
    74
1070
     0
1000
MTEXTEND
  0
SOLID
  5
1078
330
106D
100
AcDbEntity
  8
图层2
 62
     0
100
AcDbTrace
 10
1228.789795055424
 20
-623.3317702124337
 30
0.0
 11
1231.916697918464
 21
-627.2333696902258
 31
0.0
 12
1242.05804492032
 22
-615.9018613622067
 32
0.0
 13
1242.05804492032
 23
-615.9018613622067
 33
0.0
  0
POINT
  5
1079
330
106D
100
AcDbEntity
  8
Defpoints
 62
     0
100
AcDbPoint
 10
1242.05804492032
 20
-615.9018613622067
 30
0.0
  0
POINT
  5
107A
330
106D
100
AcDbEntity
  8
Defpoints
 62
     0
100
AcDbPoint
 10
1180.412773171207
 20
-665.3069265982549
 30
0.0
  0
ENDBLK
  5
1074
330
106D
100
AcDbEntity
  8
0
100
AcDbBlockEnd
  0
BLOCK
  5
1083
330
107D
100
AcDbEntity
  8
0
100
AcDbBlockBegin
  2
*D63
 70
     1
 10
0.0
 20
0.0
 30
0.0
  3
*D63
  1

  0
LINE
  5
1086
330
107D
100
AcDbEntity
  8
图层2
 62
     0
370
    -2
100
AcDbLine
 10
1183.771266841656
 20
-925.0110486623301
 30
0.0
 11
1223.401492152941
 21
-968.7196890184056
 31
0.0
  0
MTEXT
  5
1087
330
107D
100
AcDbEntity
  8
图层2
 62
     0
100
AcDbMText
 10
1205.586470913367
 20
-934.9280477704056
 30
0.0
 40
15.0
 41
0.0
 46
0.0
 71
     5
 72
     1
  1
R79
 11
0.6716987340895777
 21
-0.7408244128148444
 31
0.0
 73
     1
 44
1.0
1001
ACAD
1000
MTEXTBEGIN
1070
    73
1070
     1
1070
    44
1040
1.0
1070
    74
1070
     0
1000
MTEXTEND
  0
SOLID
  5
1088
330
107D
100
AcDbEntity
  8
图层2
 62
     0
100
AcDbTrace
 10
1225.253553184978
 20
-967.0404421831817
 30
0.0
 11
1221.549431120904
 21
-970.3989358536295
 31
0.0
 12
1233.476973164284
 22
-979.8320552106284
 32
0.0
 13
1233.476973164284
 23
-979.8320552106284
 33
0.0
  0
POINT
  5
1089
330
107D
100
AcDbEntity
  8
Defpoints
 62
     0
100
AcDbPoint
 10
1233.476973164284
 20
-979.8320552106284
 30
0.0
  0
POINT
  5
108A
330
107D
100
AcDbEntity
  8
Defpoints
 62
     0
100
AcDbPoint
 10
1180.412773171207
 20
-921.3069265982554
 30
0.0
  0
ENDBLK
  5
1084
330
107D
100
AcDbEntity
  8
0
100
AcDbBlockEnd
  0
BLOCK
  5
1093
330
108D
100
AcDbEntity
  8
0
100
AcDbBlockBegin
  2
*D64
 70
     1
 10
0.0
 20
0.0
 30
0.0
  3
*D64
  1

  0
LINE
  5
1096
330
108D
100
AcDbEntity
  8
图层2
 62
     0
370
    -2
100
AcDbLine
 10
578.4202773370834
 20
-913.5735759306177
 30
0.0
 11
535.7830902543192
 21
-964.606117290708
 31
0.0
  0
MTEXT
  5
1097
330
108D
100
AcDbEntity
  8
图层2
 62
     0
100
AcDbMText
 10
554.6200260543461
 20
-927.2432701070997
 30
0.0
 40
15.0
 41
0.0
 46
0.0
 71
     5
 72
     1
  1
R104
 11
0.6411607080114953
 21
0.767406636993842
 31
0.0
 73
     1
 44
1.0
1001
ACAD
1000
MTEXTBEGIN
1070
    73
1070
     1
1070
    44
1040
1.0
1070
    74
1070
     0
1000
MTEXTEND
  0
SOLID
  5
1098
330
108D
100
AcDbEntity
  8
图层2
 62
     0
100
AcDbTrace
 10
533.8645736618344
 20
-963.0032155206793
 30
0.0
 11
537.7016068468036
 21
-966.2090190607367
 31
0.0
 12
526.1656796341465
 22
-976.1172168456155
 32
0.0
 13
526.1656796341465
 23
-976.1172168456155
 33
0.0
  0
POINT
  5
1099
330
108D
100
AcDbEntity
  8
Defpoints
 62
     0
100
AcDbPoint
 10
526.1656796341465
 20
-976.1172168456155
 30
0.0
  0
POINT
  5
109A
330
108D
100
AcDbEntity
  8
Defpoints
 62
     0
100
AcDbPoint
 10
592.846393267342
 20
-896.3069265982564
 30
0.0
  0
ENDBLK
  5
1094
330
108D
100
AcDbEntity
  8
0
100
AcDbBlockEnd
  0
BLOCK
  5
10A3
330
109D
100
AcDbEntity
  8
0
100
AcDbBlockBegin
  2
*D65
 70
     1
 10
0.0
 20
0.0
 30
0.0
  3
*D65
  1

  0
LINE
  5
10A6
330
109D
100
AcDbEntity
  8
图层2
 62
     0
370
    -2
100
AcDbLine
 10
807.8946613889254
 20
-639.0706921281624
 30
0.0
 11
821.550041243506
 21
-530.9294391253092
 31
0.0
  0
MTEXT
  5
10A7
330
109D
100
AcDbEntity
  8
图层2
 62
     0
100
AcDbMText
 10
803.1174538970411
 20
-591.0942313522831
 30
0.0
 40
15.0
 41
0.0
 46
0.0
 71
     5
 72
     1
  1
R484,07
 11
0.1252787142622101
 21
0.9921215871821395
 31
0.0
 73
     1
 44
1.0
1001
ACAD
1000
MTEXTBEGIN
1070
    73
1070
     1
1070
    44
1040
1.0
1070
    74
1070
     0
1000
MTEXTEND
  0
SOLID
  5
10A8
330
109D
100
AcDbEntity
  8
图层2
 62
     0
100
AcDbTrace
 10
819.0697372755506
 20
-530.6162423396536
 30
0.0
 11
824.0303452114615
 21
-531.2426359109646
 31
0.0
 12
823.4292219574392
 22
-516.0476153175769
 32
0.0
 13
823.4292219574392
 23
-516.0476153175769
 33
0.0
  0
POINT
  5
10A9
330
109D
100
AcDbEntity
  8
Defpoints
 62
     0
100
AcDbPoint
 10
823.4292219574392
 20
-516.0476153175769
 30
0.0
  0
POINT
  5
10AA
330
109D
100
AcDbEntity
  8
Defpoints
 62
     0
100
AcDbPoint
 10
762.7851740836455
 20
-996.3069265982545
 30
0.0
  0
ENDBLK
  5
10A4
330
109D
100
AcDbEntity
  8
0
100
AcDbBlockEnd
  0
BLOCK
  5
10B3
330
10AD
100
AcDbEntity
  8
0
100
AcDbBlockBegin
  2
*D66
 70
     1
 10
0.0
 20
0.0
 30
0.0
  3
*D66
  1

  0
LINE
  5
10B6
330
10AD
100
AcDbEntity
  8
图层2
 62
     0
370
    -2
100
AcDbLine
 10
912.1259252966936
 20
-632.9365092875613
 30
0.0
 11
957.6935691626655
 21
-581.1234816545042
 31
0.0
  0
MTEXT
  5
10B7
330
10AD
100
AcDbEntity
  8
图层2
 62
     0
100
AcDbMText
 10
922.8230647440442
 20
-606.3880402611951
 30
0.0
 40
15.0
 41
0.0
 46
0.0
 71
     5
 72
     1
  1
R184
 11
0.6604006357387263
 21
0.7509134439573488
 31
0.0
 73
     1
 44
1.0
1001
ACAD
1000
MTEXTBEGIN
1070
    73
1070
     1
1070
    44
1040
1.0
1070
    74
1070
     0
1000
MTEXTEND
  0
SOLID
  5
10B8
330
10AD
100
AcDbEntity
  8
图层2
 62
     0
100
AcDbTrace
 10
955.8162855527724
 20
-579.4724800651573
 30
0.0
 11
959.5708527725591
 21
-582.7744832438511
 31
0.0
 12
967.5995786987467
 22
-569.8597799951441
 32
0.0
 13
967.5995786987467
 23
-569.8597799951441
 33
0.0
  0
POINT
  5
10B9
330
10AD
100
AcDbEntity
  8
Defpoints
 62
     0
100
AcDbPoint
 10
967.5995786987467
 20
-569.8597799951441
 30
0.0
  0
POINT
  5
10BA
330
10AD
100
AcDbEntity
  8
Defpoints
 62
     0
100
AcDbPoint
 10
846.0858617228211
 20
-708.0278536832962
 30
0.0
  0
ENDBLK
  5
10B4
330
10AD
100
AcDbEntity
  8
0
100
AcDbBlockEnd
  0
BLOCK
  5
10C3
330
10BD
100
AcDbEntity
  8
0
100
AcDbBlockBegin
  2
*D67
 70
     1
 10
0.0
 20
0.0
 30
0.0
  3
*D67
  1

  0
LINE
  5
10C6
330
10BD
100
AcDbEntity
  8
图层2
 62
     0
370
    -2
100
AcDbLine
 10
608.7940248620631
 20
-637.2969648067495
 30
0.0
 11
560.0176063702033
 21
-588.4926514819319
 31
0.0
  0
MTEXT
  5
10C7
330
10BD
100
AcDbEntity
  8
图层2
 62
     0
100
AcDbMText
 10
596.4270346780856
 20
-611.4840309597532
 30
0.0
 40
15.0
 41
0.0
 46
0.0
 71
     5
 72
     1
  1
R184
 11
0.706904615824055
 21
-0.7073088887654711
 31
0.0
 73
     1
 44
1.0
1001
ACAD
1000
MTEXTBEGIN
1070
    73
1070
     1
1070
    44
1040
1.0
1070
    74
1070
     0
1000
MTEXTEND
  0
SOLID
  5
10C8
330
10BD
100
AcDbEntity
  8
图层2
 62
     0
100
AcDbTrace
 10
561.7858785921169
 20
-586.725389942372
 30
0.0
 11
558.2493341482896
 21
-590.2599130214922
 31
0.0
 12
549.4140371328425
 22
-577.8830181504498
 32
0.0
 13
549.4140371328425
 23
-577.8830181504498
 33
0.0
  0
POINT
  5
10C9
330
10BD
100
AcDbEntity
  8
Defpoints
 62
     0
100
AcDbPoint
 10
549.4140371328425
 20
-577.8830181504498
 30
0.0
  0
POINT
  5
10CA
330
10BD
100
AcDbEntity
  8
Defpoints
 62
     0
100
AcDbPoint
 10
679.4844864444677
 20
-708.0278536832959
 30
0.0
  0
ENDBLK
  5
10C4
330
10BD
100
AcDbEntity
  8
0
100
AcDbBlockEnd
  0
BLOCK
  5
111A
330
1110
100
AcDbEntity
  8
0
100
AcDbBlockBegin
  2
*D68
 70
     1
 10
0.0
 20
0.0
 30
0.0
  3
*D68
  1

  0
LINE
  5
111D
330
1110
100
AcDbEntity
  8
图层2
 62
     0
440
 16777216
370
    -2
100
AcDbLine
 10
2800.054345059798
 20
691.8138851404052
 30
0.0
 11
2800.054345059798
 21
431.2823941492533
 31
0.0
  0
LINE
  5
111E
330
1110
100
AcDbEntity
  8
图层2
 62
     0
440
 16777216
370
    -2
100
AcDbLine
 10
3497.054345059797
 20
691.8138851404095
 30
0.0
 11
3497.054345059797
 21
431.2823941492533
 31
0.0
  0
LINE
  5
111F
330
1110
100
AcDbEntity
  8
图层2
 62
     0
440
 16777216
370
    -2
100
AcDbLine
 10
2815.054345059798
 20
432.5323941492533
 30
0.0
 11
3482.054345059796
 21
432.5323941492533
 31
0.0
  0
SOLID
  5
1120
330
1110
100
AcDbEntity
  8
图层2
 62
     0
440
 16777216
100
AcDbTrace
 10
2815.054345059798
 20
435.0323941492534
 30
0.0
 11
2815.054345059798
 21
430.0323941492534
 31
0.0
 12
2800.054345059798
 22
432.5323941492533
 32
0.0
 13
2800.054345059798
 23
432.5323941492533
 33
0.0
  0
SOLID
  5
1121
330
1110
100
AcDbEntity
  8
图层2
 62
     0
440
 16777216
100
AcDbTrace
 10
3482.054345059796
 20
435.0323941492534
 30
0.0
 11
3482.054345059796
 21
430.0323941492534
 31
0.0
 12
3497.054345059797
 22
432.5323941492533
 32
0.0
 13
3497.054345059797
 23
432.5323941492533
 33
0.0
  0
MTEXT
  5
1122
330
1110
100
AcDbEntity
  8
图层2
 62
     0
440
 16777216
100
AcDbMText
 10
3148.554345059797
 20
442.0323941492533
 30
0.0
 40
15.0
 41
0.0
 46
0.0
 71
     5
 72
     1
  1
697
 73
     1
 44
1.0
1001
ACAD
1000
MTEXTBEGIN
1070
    73
1070
     1
1070
    44
1040
1.0
1070
    74
1070
     0
1000
MTEXTEND
  0
POINT
  5
1123
330
1110
100
AcDbEntity
  8
Defpoints
 62
     0
440
 16777216
100
AcDbPoint
 10
2800.054345059798
 20
692.4388851404053
 30
0.0
  0
POINT
  5
1124
330
1110
100
AcDbEntity
  8
Defpoints
 62
     0
440
 16777216
100
AcDbPoint
 10
3497.054345059797
 20
692.4388851404095
 30
0.0
  0
POINT
  5
1125
330
1110
100
AcDbEntity
  8
Defpoints
 62
     0
440
 16777216
100
AcDbPoint
 10
3497.054345059797
 20
432.5323941492533
 30
0.0
  0
ENDBLK
  5
111B
330
1110
100
AcDbEntity
  8
0
100
AcDbBlockEnd
  0
BLOCK
  5
1132
330
1128
100
AcDbEntity
  8
0
100
AcDbBlockBegin
  2
*D69
 70
     1
 10
0.0
 20
0.0
 30
0.0
  3
*D69
  1

  0
LINE
  5
1135
330
1128
100
AcDbEntity
  8
图层2
 62
     0
440
 16777216
370
    -2
100
AcDbLine
 10
2793.054345059798
 20
691.8138851404052
 30
0.0
 11
2793.054345059798
 21
396.5519358289293
 31
0.0
  0
LINE
  5
1136
330
1128
100
AcDbEntity
  8
图层2
 62
     0
440
 16777216
370
    -2
100
AcDbLine
 10
3504.054345059796
 20
691.8138851404097
 30
0.0
 11
3504.054345059796
 21
396.5519358289293
 31
0.0
  0
LINE
  5
1137
330
1128
100
AcDbEntity
  8
图层2
 62
     0
440
 16777216
370
    -2
100
AcDbLine
 10
2808.054345059798
 20
397.8019358289293
 30
0.0
 11
3489.054345059796
 21
397.8019358289293
 31
0.0
  0
SOLID
  5
1138
330
1128
100
AcDbEntity
  8
图层2
 62
     0
440
 16777216
100
AcDbTrace
 10
2808.054345059798
 20
400.3019358289292
 30
0.0
 11
2808.054345059798
 21
395.3019358289294
 31
0.0
 12
2793.054345059798
 22
397.8019358289293
 32
0.0
 13
2793.054345059798
 23
397.8019358289293
 33
0.0
  0
SOLID
  5
1139
330
1128
100
AcDbEntity
  8
图层2
 62
     0
440
 16777216
100
AcDbTrace
 10
3489.054345059796
 20
400.3019358289292
 30
0.0
 11
3489.054345059796
 21
395.3019358289294
 31
0.0
 12
3504.054345059796
 22
397.8019358289293
 32
0.0
 13
3504.054345059796
 23
397.8019358289293
 33
0.0
  0
MTEXT
  5
113A
330
1128
100
AcDbEntity
  8
图层2
 62
     0
440
 16777216
100
AcDbMText
 10
3148.554345059797
 20
407.3019358289292
 30
0.0
 40
15.0
 41
0.0
 46
0.0
 71
     5
 72
     1
  1
711
 73
     1
 44
1.0
1001
ACAD
1000
MTEXTBEGIN
1070
    73
1070
     1
1070
    44
1040
1.0
1070
    74
1070
     0
1000
MTEXTEND
  0
POINT
  5
113B
330
1128
100
AcDbEntity
  8
Defpoints
 62
     0
440
 16777216
100
AcDbPoint
 10
2793.054345059798
 20
692.4388851404053
 30
0.0
  0
POINT
  5
113C
330
1128
100
AcDbEntity
  8
Defpoints
 62
     0
440
 16777216
100
AcDbPoint
 10
3504.054345059796
 20
692.4388851404097
 30
0.0
  0
POINT
  5
113D
330
1128
100
AcDbEntity
  8
Defpoints
 62
     0
440
 16777216
100
AcDbPoint
 10
3504.054345059796
 20
397.8019358289293
 30
0.0
  0
ENDBLK
  5
1133
330
1128
100
AcDbEntity
  8
0
100
AcDbBlockEnd
  0
BLOCK
  5
114A
330
1140
100
AcDbEntity
  8
0
100
AcDbBlockBegin
  2
*D70
 70
     1
 10
0.0
 20
0.0
 30
0.0
  3
*D70
  1

  0
LINE
  5
114D
330
1140
100
AcDbEntity
  8
图层2
 62
     0
440
 16777216
370
    -2
100
AcDbLine
 10
3328.679345059797
 20
906.4388851404034
 30
0.0
 11
3548.433434526116
 21
906.4388851404034
 31
0.0
  0
LINE
  5
114E
330
1140
100
AcDbEntity
  8
图层2
 62
     0
440
 16777216
370
    -2
100
AcDbLine
 10
3328.679345059797
 20
478.4388851404034
 30
0.0
 11
3548.433434526116
 21
478.4388851404032
 31
0.0
  0
LINE
  5
114F
330
1140
100
AcDbEntity
  8
图层2
 62
     0
440
 16777216
370
    -2
100
AcDbLine
 10
3547.183434526116
 20
891.4388851404034
 30
0.0
 11
3547.183434526116
 21
493.4388851404032
 31
0.0
  0
SOLID
  5
1150
330
1140
100
AcDbEntity
  8
图层2
 62
     0
440
 16777216
100
AcDbTrace
 10
3544.683434526116
 20
891.4388851404034
 30
0.0
 11
3549.683434526116
 21
891.4388851404034
 31
0.0
 12
3547.183434526116
 22
906.4388851404034
 32
0.0
 13
3547.183434526116
 23
906.4388851404034
 33
0.0
  0
SOLID
  5
1151
330
1140
100
AcDbEntity
  8
图层2
 62
     0
440
 16777216
100
AcDbTrace
 10
3544.683434526116
 20
493.4388851404032
 30
0.0
 11
3549.683434526116
 21
493.4388851404032
 31
0.0
 12
3547.183434526116
 22
478.4388851404032
 32
0.0
 13
3547.183434526116
 23
478.4388851404032
 33
0.0
  0
MTEXT
  5
1152
330
1140
100
AcDbEntity
  8
图层2
 62
     0
440
 16777216
100
AcDbMText
 10
3537.683434526116
 20
692.4388851404039
 30
0.0
 40
15.0
 41
0.0
 46
0.0
 71
     5
 72
     1
  1
428
 11
0.0000000000000001
 21
1.0
 31
0.0
 73
     1
 44
1.0
1001
ACAD
1000
MTEXTBEGIN
1070
    73
1070
     1
1070
    44
1040
1.0
1070
    74
1070
     0
1000
MTEXTEND
  0
POINT
  5
1153
330
1140
100
AcDbEntity
  8
Defpoints
 62
     0
440
 16777216
100
AcDbPoint
 10
3328.054345059797
 20
906.4388851404034
 30
0.0
  0
POINT
  5
1154
330
1140
100
AcDbEntity
  8
Defpoints
 62
     0
440
 16777216
100
AcDbPoint
 10
3328.054345059797
 20
478.4388851404034
 30
0.0
  0
POINT
  5
1155
330
1140
100
AcDbEntity
  8
Defpoints
 62
     0
440
 16777216
100
AcDbPoint
 10
3547.183434526116
 20
478.4388851404032
 30
0.0
  0
ENDBLK
  5
114B
330
1140
100
AcDbEntity
  8
0
100
AcDbBlockEnd
  0
BLOCK
  5
1162
330
1158
100
AcDbEntity
  8
0
100
AcDbBlockBegin
  2
*D71
 70
     1
 10
0.0
 20
0.0
 30
0.0
  3
*D71
  1

  0
LINE
  5
1165
330
1158
100
AcDbEntity
  8
图层2
 62
     0
440
 16777216
370
    -2
100
AcDbLine
 10
3328.679345059797
 20
913.4388851404036
 30
0.0
 11
3588.467079115326
 21
913.4388851404036
 31
0.0
  0
LINE
  5
1166
330
1158
100
AcDbEntity
  8
图层2
 62
     0
440
 16777216
370
    -2
100
AcDbLine
 10
3328.679345059797
 20
471.4388851404036
 30
0.0
 11
3588.467079115326
 21
471.4388851404034
 31
0.0
  0
LINE
  5
1167
330
1158
100
AcDbEntity
  8
图层2
 62
     0
440
 16777216
370
    -2
100
AcDbLine
 10
3587.217079115326
 20
898.4388851404036
 30
0.0
 11
3587.217079115326
 21
486.4388851404036
 31
0.0
  0
SOLID
  5
1168
330
1158
100
AcDbEntity
  8
图层2
 62
     0
440
 16777216
100
AcDbTrace
 10
3584.717079115326
 20
898.4388851404036
 30
0.0
 11
3589.717079115326
 21
898.4388851404036
 31
0.0
 12
3587.217079115326
 22
913.4388851404036
 32
0.0
 13
3587.217079115326
 23
913.4388851404036
 33
0.0
  0
SOLID
  5
1169
330
1158
100
AcDbEntity
  8
图层2
 62
     0
440
 16777216
100
AcDbTrace
 10
3584.717079115326
 20
486.4388851404036
 30
0.0
 11
3589.717079115326
 21
486.4388851404036
 31
0.0
 12
3587.217079115326
 22
471.4388851404034
 32
0.0
 13
3587.217079115326
 23
471.4388851404034
 33
0.0
  0
MTEXT
  5
116A
330
1158
100
AcDbEntity
  8
图层2
 62
     0
440
 16777216
100
AcDbMText
 10
3577.717079115326
 20
692.4388851404041
 30
0.0
 40
15.0
 41
0.0
 46
0.0
 71
     5
 72
     1
  1
442
 11
0.0000000000000001
 21
1.0
 31
0.0
 73
     1
 44
1.0
1001
ACAD
1000
MTEXTBEGIN
1070
    73
1070
     1
1070
    44
1040
1.0
1070
    74
1070
     0
1000
MTEXTEND
  0
POINT
  5
116B
330
1158
100
AcDbEntity
  8
Defpoints
 62
     0
440
 16777216
100
AcDbPoint
 10
3328.054345059797
 20
913.4388851404036
 30
0.0
  0
POINT
  5
116C
330
1158
100
AcDbEntity
  8
Defpoints
 62
     0
440
 16777216
100
AcDbPoint
 10
3328.054345059797
 20
471.4388851404036
 30
0.0
  0
POINT
  5
116D
330
1158
100
AcDbEntity
  8
Defpoints
 62
     0
440
 16777216
100
AcDbPoint
 10
3587.217079115326
 20
471.4388851404034
 30
0.0
  0
ENDBLK
  5
1163
330
1158
100
AcDbEntity
  8
0
100
AcDbBlockEnd
  0
BLOCK
  5
1176
330
1170
100
AcDbEntity
  8
0
100
AcDbBlockBegin
  2
*D72
 70
     1
 10
0.0
 20
0.0
 30
0.0
  3
*D72
  1

  0
LINE
  5
1179
330
1170
100
AcDbEntity
  8
图层2
 62
     0
440
 16777216
370
    -2
100
AcDbLine
 10
2885.772072884255
 20
561.4687848875774
 30
0.0
 11
2844.726719066038
 21
519.0862539351043
 31
0.0
  0
MTEXT
  5
117A
330
1170
100
AcDbEntity
  8
图层2
 62
     0
440
 16777216
100
AcDbMText
 10
2863.642719866471
 20
552.2741269268768
 30
0.0
 40
15.0
 41
0.0
 46
0.0
 71
     5
 72
     1
  1
R94
 11
0.6956839630206387
 21
0.7183479822453035
 31
0.0
 73
     1
 44
1.0
1001
ACAD
1000
MTEXTBEGIN
1070
    73
1070
     1
1070
    44
1040
1.0
1070
    74
1070
     0
1000
MTEXTEND
  0
SOLID
  5
117B
330
1170
100
AcDbEntity
  8
图层2
 62
     0
440
 16777216
100
AcDbTrace
 10
2842.930849110425
 20
520.825463842656
 30
0.0
 11
2846.522589021651
 21
517.3470440275528
 31
0.0
 12
2834.291459620727
 22
508.3110342014249
 32
0.0
 13
2834.291459620727
 23
508.3110342014249
 33
0.0
  0
POINT
  5
117C
330
1170
100
AcDbEntity
  8
Defpoints
 62
     0
440
 16777216
100
AcDbPoint
 10
2834.291459620727
 20
508.3110342014249
 30
0.0
  0
POINT
  5
117D
330
1170
100
AcDbEntity
  8
Defpoints
 62
     0
440
 16777216
100
AcDbPoint
 10
2899.685752144666
 20
575.8357445324828
 30
0.0
  0
ENDBLK
  5
1177
330
1170
100
AcDbEntity
  8
0
100
AcDbBlockEnd
  0
BLOCK
  5
1186
330
1180
100
AcDbEntity
  8
0
100
AcDbBlockBegin
  2
*D73
 70
     1
 10
0.0
 20
0.0
 30
0.0
  3
*D73
  1

  0
LINE
  5
1189
330
1180
100
AcDbEntity
  8
图层2
 62
     0
440
 16777216
370
    -2
100
AcDbLine
 10
2897.230039787026
 20
732.8288121382358
 30
0.0
 11
2815.775645683729
 21
735.5549231529963
 31
0.0
  0
MTEXT
  5
118A
330
1180
100
AcDbEntity
  8
图层2
 62
     0
440
 16777216
100
AcDbMText
 10
2864.316413415315
 20
743.4356825090593
 30
0.0
 40
15.0
 41
0.0
 46
0.0
 71
     5
 72
     1
  1
R1304
 11
0.9994404184453602
 21
-0.0334492149050358
 31
0.0
 73
     1
 44
1.0
1001
ACAD
1000
MTEXTBEGIN
1070
    73
1070
     1
1070
    44
1040
1.0
1070
    74
1070
     0
1000
MTEXTEND
  0
SOLID
  5
118B
330
1180
100
AcDbEntity
  8
图层2
 62
     0
440
 16777216
100
AcDbTrace
 10
2815.859268720991
 20
738.0535241991098
 30
0.0
 11
2815.692022646466
 21
733.0563221068828
 31
0.0
 12
2800.784039407048
 22
736.0566613765718
 32
0.0
 13
2800.784039407048
 23
736.0566613765718
 33
0.0
  0
POINT
  5
118C
330
1180
100
AcDbEntity
  8
Defpoints
 62
     0
440
 16777216
100
AcDbPoint
 10
2800.784039407048
 20
736.0566613765718
 30
0.0
  0
POINT
  5
118D
330
1180
100
AcDbEntity
  8
Defpoints
 62
     0
440
 16777216
100
AcDbPoint
 10
4104.054345059802
 20
692.4388851404054
 30
0.0
  0
ENDBLK
  5
1187
330
1180
100
AcDbEntity
  8
0
100
AcDbBlockEnd
  0
BLOCK
  5
1196
330
1190
100
AcDbEntity
  8
0
100
AcDbBlockBegin
  2
*D74
 70
     1
 10
0.0
 20
0.0
 30
0.0
  3
*D74
  1

  0
LINE
  5
1199
330
1190
100
AcDbEntity
  8
图层2
 62
     0
440
 16777216
370
    -2
100
AcDbLine
 10
3399.905708428621
 20
732.0120671555915
 30
0.0
 11
3481.361928813349
 21
734.6830521114821
 31
0.0
  0
MTEXT
  5
119A
330
1190
100
AcDbEntity
  8
图层2
 62
     0
440
 16777216
100
AcDbMText
 10
3432.826505615262
 20
742.5966603266133
 30
0.0
 40
15.0
 41
0.0
 46
0.0
 71
     5
 72
     1
  1
R1304
 11
0.9994628268064808
 21
0.0327728215446689
 31
0.0
 73
     1
 44
1.0
1001
ACAD
1000
MTEXTBEGIN
1070
    73
1070
     1
1070
    44
1040
1.0
1070
    74
1070
     0
1000
MTEXTEND
  0
SOLID
  5
119B
330
1190
100
AcDbEntity
  8
图层2
 62
     0
440
 16777216
100
AcDbTrace
 10
3481.279996759488
 20
737.1817091784982
 30
0.0
 11
3481.443860867211
 21
732.184395044466
 31
0.0
 12
3496.353871215447
 22
735.1746444346521
 32
0.0
 13
3496.353871215447
 23
735.1746444346521
 33
0.0
  0
POINT
  5
119C
330
1190
100
AcDbEntity
  8
Defpoints
 62
     0
440
 16777216
100
AcDbPoint
 10
3496.353871215447
 20
735.1746444346521
 30
0.0
  0
POINT
  5
119D
330
1190
100
AcDbEntity
  8
Defpoints
 62
     0
440
 16777216
100
AcDbPoint
 10
2193.054345059792
 20
692.4388851404033
 30
0.0
  0
ENDBLK
  5
1197
330
1190
100
AcDbEntity
  8
0
100
AcDbBlockEnd
  0
BLOCK
  5
11A6
330
11A0
100
AcDbEntity
  8
0
100
AcDbBlockBegin
  2
*D75
 70
     1
 10
0.0
 20
0.0
 30
0.0
  3
*D75
  1

  0
LINE
  5
11A9
330
11A0
100
AcDbEntity
  8
图层2
 62
     0
440
 16777216
370
    -2
100
AcDbLine
 10
2934.865883542862
 20
565.7538782516695
 30
0.0
 11
2931.458949747098
 21
494.3350935930706
 31
0.0
  0
MTEXT
  5
11AA
330
11A0
100
AcDbEntity
  8
图层2
 62
     0
440
 16777216
100
AcDbMText
 10
2924.030578172414
 20
537.9886363559262
 30
0.0
 40
15.0
 41
0.0
 46
0.0
 71
     5
 72
     1
  1
R804
 11
0.0476494237169792
 21
0.9988641210992813
 31
0.0
 73
     1
 44
1.0
1001
ACAD
1000
MTEXTBEGIN
1070
    73
1070
     1
1070
    44
1040
1.0
1070
    74
1070
     0
1000
MTEXTEND
  0
SOLID
  5
11AB
330
11A0
100
AcDbEntity
  8
图层2
 62
     0
440
 16777216
100
AcDbTrace
 10
2928.961789444349
 20
494.4542171523631
 30
0.0
 11
2933.956110049845
 21
494.2159700337781
 31
0.0
 12
2930.744208391343
 22
479.3521317765814
 32
0.0
 13
2930.744208391343
 23
479.3521317765814
 33
0.0
  0
POINT
  5
11AC
330
11A0
100
AcDbEntity
  8
Defpoints
 62
     0
440
 16777216
100
AcDbPoint
 10
2930.744208391343
 20
479.3521317765814
 30
0.0
  0
POINT
  5
11AD
330
11A0
100
AcDbEntity
  8
Defpoints
 62
     0
440
 16777216
100
AcDbPoint
 10
2969.054345059794
 20
1282.438885140402
 30
0.0
  0
ENDBLK
  5
11A7
330
11A0
100
AcDbEntity
  8
0
100
AcDbBlockEnd
  0
BLOCK
  5
11B6
330
11B0
100
AcDbEntity
  8
0
100
AcDbBlockBegin
  2
*D76
 70
     1
 10
0.0
 20
0.0
 30
0.0
  3
*D76
  1

  0
LINE
  5
11B9
330
11B0
100
AcDbEntity
  8
图层2
 62
     0
440
 16777216
370
    -2
100
AcDbLine
 10
3411.795023914188
 20
561.9273605230274
 30
0.0
 11
3454.19267743501
 21
520.8976276951354
 31
0.0
  0
MTEXT
  5
11BA
330
11B0
100
AcDbEntity
  8
图层2
 62
     0
440
 16777216
100
AcDbMText
 10
3434.210800851867
 20
553.4548789337764
 30
0.0
 40
15.0
 41
0.0
 46
0.0
 71
     5
 72
     1
  1
R94
 11
0.7186042969631031
 21
-0.6954192004727541
 31
0.0
 73
     1
 44
1.0
1001
ACAD
1000
MTEXTBEGIN
1070
    73
1070
     1
1070
    44
1040
1.0
1070
    74
1070
     0
1000
MTEXTEND
  0
SOLID
  5
11BB
330
11B0
100
AcDbEntity
  8
图层2
 62
     0
440
 16777216
100
AcDbTrace
 10
3455.931225436192
 20
522.6941384375428
 30
0.0
 11
3452.454129433828
 21
519.1011169527272
 31
0.0
 12
3464.971741889457
 22
510.4663396880439
 32
0.0
 13
3464.971741889457
 23
510.4663396880439
 33
0.0
  0
POINT
  5
11BC
330
11B0
100
AcDbEntity
  8
Defpoints
 62
     0
440
 16777216
100
AcDbPoint
 10
3464.971741889457
 20
510.4663396880439
 30
0.0
  0
POINT
  5
11BD
330
11B0
100
AcDbEntity
  8
Defpoints
 62
     0
440
 16777216
100
AcDbPoint
 10
3397.422937974926
 20
575.8357445324816
 30
0.0
  0
ENDBLK
  5
11B7
330
11B0
100
AcDbEntity
  8
0
100
AcDbBlockEnd
  0
BLOCK
  5
11C6
330
11C0
100
AcDbEntity
  8
0
100
AcDbBlockBegin
  2
*D77
 70
     1
 10
0.0
 20
0.0
 30
0.0
  3
*D77
  1

  0
LINE
  5
11C9
330
11C0
100
AcDbEntity
  8
图层2
 62
     0
440
 16777216
370
    -2
100
AcDbLine
 10
3364.599062063729
 20
565.8701629238232
 30
0.0
 11
3368.24080041325
 21
494.4629662151326
 31
0.0
  0
MTEXT
  5
11CA
330
11C0
100
AcDbEntity
  8
图层2
 62
     0
440
 16777216
100
AcDbMText
 10
3375.525600205079
 20
538.1406972916546
 30
0.0
 40
15.0
 41
0.0
 46
0.0
 71
     5
 72
     1
  1
R804
 11
0.0509334034898033
 21
-0.9987020518697981
 31
0.0
 73
     1
 44
1.0
1001
ACAD
1000
MTEXTBEGIN
1070
    73
1070
     1
1070
    44
1040
1.0
1070
    74
1070
     0
1000
MTEXTEND
  0
SOLID
  5
11CB
330
11C0
100
AcDbEntity
  8
图层2
 62
     0
440
 16777216
100
AcDbTrace
 10
3370.737555542925
 20
494.5902997238571
 30
0.0
 11
3365.744045283577
 21
494.3356327064081
 31
0.0
 12
3369.004801465597
 22
479.4824354370856
 32
0.0
 13
3369.004801465597
 23
479.4824354370856
 33
0.0
  0
POINT
  5
11CC
330
11C0
100
AcDbEntity
  8
Defpoints
 62
     0
440
 16777216
100
AcDbPoint
 10
3369.004801465597
 20
479.4824354370856
 30
0.0
  0
POINT
  5
11CD
330
11C0
100
AcDbEntity
  8
Defpoints
 62
     0
440
 16777216
100
AcDbPoint
 10
3328.054345059796
 20
1282.438885140402
 30
0.0
  0
ENDBLK
  5
11C7
330
11C0
100
AcDbEntity
  8
0
100
AcDbBlockEnd
  0
BLOCK
  5
11D6
330
11D0
100
AcDbEntity
  8
0
100
AcDbBlockBegin
  2
*D78
 70
     1
 10
0.0
 20
0.0
 30
0.0
  3
*D78
  1

  0
LINE
  5
11D9
330
11D0
100
AcDbEntity
  8
图层2
 62
     0
440
 16777216
370
    -2
100
AcDbLine
 10
3411.951181306609
 20
822.7872120219004
 30
0.0
 11
3454.809499135075
 21
863.3355115289594
 31
0.0
  0
MTEXT
  5
11DA
330
11D0
100
AcDbEntity
  8
图层2
 62
     0
440
 16777216
100
AcDbMText
 10
3421.403285491511
 20
844.8078325053872
 30
0.0
 40
15.0
 41
0.0
 46
0.0
 71
     5
 72
     1
  1
R94
 11
0.7264121665841762
 21
0.6872593136789657
 31
0.0
 73
     1
 44
1.0
1001
ACAD
1000
MTEXTBEGIN
1070
    73
1070
     1
1070
    44
1040
1.0
1070
    74
1070
     0
1000
MTEXTEND
  0
SOLID
  5
11DB
330
11D0
100
AcDbEntity
  8
图层2
 62
     0
440
 16777216
100
AcDbTrace
 10
3453.091350850878
 20
865.1515419454199
 30
0.0
 11
3456.527647419274
 21
861.5194811124991
 31
0.0
 12
3465.705681633838
 22
873.6444012341436
 32
0.0
 13
3465.705681633838
 23
873.6444012341436
 33
0.0
  0
POINT
  5
11DC
330
11D0
100
AcDbEntity
  8
Defpoints
 62
     0
440
 16777216
100
AcDbPoint
 10
3465.705681633838
 20
873.6444012341436
 30
0.0
  0
POINT
  5
11DD
330
11D0
100
AcDbEntity
  8
Defpoints
 62
     0
440
 16777216
100
AcDbPoint
 10
3397.422937974929
 20
809.0420257483232
 30
0.0
  0
ENDBLK
  5
11D7
330
11D0
100
AcDbEntity
  8
0
100
AcDbBlockEnd
  0
BLOCK
  5
11E6
330
11E0
100
AcDbEntity
  8
0
100
AcDbBlockBegin
  2
*D79
 70
     1
 10
0.0
 20
0.0
 30
0.0
  3
*D79
  1

  0
LINE
  5
11E9
330
11E0
100
AcDbEntity
  8
图层2
 62
     0
440
 16777216
370
    -2
100
AcDbLine
 10
3362.352335705054
 20
819.1186587057639
 30
0.0
 11
3365.770184250191
 21
890.5369218554836
 31
0.0
  0
MTEXT
  5
11EA
330
11E0
100
AcDbEntity
  8
图层2
 62
     0
440
 16777216
100
AcDbMText
 10
3354.213604536912
 20
847.7904838128743
 30
0.0
 40
15.0
 41
0.0
 46
0.0
 71
     5
 72
     1
  1
R804
 11
0.0478020775543561
 21
0.998856827268797
 31
0.0
 73
     1
 44
1.0
1001
ACAD
1000
MTEXTBEGIN
1070
    73
1070
     1
1070
    44
1040
1.0
1070
    74
1070
     0
1000
MTEXTEND
  0
SOLID
  5
11EB
330
11E0
100
AcDbEntity
  8
图层2
 62
     0
440
 16777216
100
AcDbTrace
 10
3363.273042182019
 20
890.6564270493698
 30
0.0
 11
3368.267326318363
 21
890.417416661598
 31
0.0
 12
3366.487215413507
 22
905.5197742645159
 32
0.0
 13
3366.487215413507
 23
905.5197742645159
 33
0.0
  0
POINT
  5
11EC
330
11E0
100
AcDbEntity
  8
Defpoints
 62
     0
440
 16777216
100
AcDbPoint
 10
3366.487215413507
 20
905.5197742645159
 30
0.0
  0
POINT
  5
11ED
330
11E0
100
AcDbEntity
  8
Defpoints
 62
     0
440
 16777216
100
AcDbPoint
 10
3328.054345059805
 20
102.4388851404035
 30
0.0
  0
ENDBLK
  5
11E7
330
11E0
100
AcDbEntity
  8
0
100
AcDbBlockEnd
  0
BLOCK
  5
11F7
330
11F1
100
AcDbEntity
  8
0
100
AcDbBlockBegin
  2
*D80
 70
     1
 10
0.0
 20
0.0
 30
0.0
  3
*D80
  1

  0
LINE
  5
11FA
330
11F1
100
AcDbEntity
  8
图层2
 62
     0
440
 16777216
370
    -2
100
AcDbLine
 10
2885.40380867044
 20
823.0429575244185
 30
0.0
 11
2843.27207542146
 21
864.3457062639015
 31
0.0
  0
MTEXT
  5
11FB
330
11F1
100
AcDbEntity
  8
图层2
 62
     0
440
 16777216
100
AcDbMText
 10
2876.344113442433
 20
845.2279056283838
 30
0.0
 40
15.0
 41
0.0
 46
0.0
 71
     5
 72
     1
  1
R94
 11
0.7140971737115133
 21
-0.7000465888047943
 31
0.0
 73
     1
 44
1.0
1001
ACAD
1000
MTEXTBEGIN
1070
    73
1070
     1
1070
    44
1040
1.0
1070
    74
1070
     0
1000
MTEXTEND
  0
SOLID
  5
11FC
330
11F1
100
AcDbEntity
  8
图层2
 62
     0
440
 16777216
100
AcDbTrace
 10
2845.022191893472
 20
866.1309491981802
 30
0.0
 11
2841.521958949448
 21
862.5604633296228
 31
0.0
 12
2832.560617815788
 22
874.8464050959736
 32
0.0
 13
2832.560617815788
 23
874.8464050959736
 33
0.0
  0
POINT
  5
11FD
330
11F1
100
AcDbEntity
  8
Defpoints
 62
     0
440
 16777216
100
AcDbPoint
 10
2832.560617815788
 20
874.8464050959736
 30
0.0
  0
POINT
  5
11FE
330
11F1
100
AcDbEntity
  8
Defpoints
 62
     0
440
 16777216
100
AcDbPoint
 10
2899.68575214467
 20
809.0420257483229
 30
0.0
  0
ENDBLK
  5
11F8
330
11F1
100
AcDbEntity
  8
0
100
AcDbBlockEnd
  0
BLOCK
  5
1207
330
1201
100
AcDbEntity
  8
0
100
AcDbBlockBegin
  2
*D81
 70
     1
 10
0.0
 20
0.0
 30
0.0
  3
*D81
  1

  0
LINE
  5
120A
330
1201
100
AcDbEntity
  8
图层2
 62
     0
440
 16777216
370
    -2
100
AcDbLine
 10
2951.807056120886
 20
819.7315597330398
 30
0.0
 11
2950.088336735337
 21
891.2108994311212
 31
0.0
  0
MTEXT
  5
120B
330
1201
100
AcDbEntity
  8
图层2
 62
     0
440
 16777216
100
AcDbMText
 10
2960.625236603263
 20
848.2017580635785
 30
0.0
 40
15.0
 41
0.0
 46
0.0
 71
     5
 72
     1
  1
R804
 11
0.0240380333643332
 21
-0.999711044728413
 31
0.0
 73
     1
 44
1.0
1001
ACAD
1000
MTEXTBEGIN
1070
    73
1070
     1
1070
    44
1040
1.0
1070
    74
1070
     0
1000
MTEXTEND
  0
SOLID
  5
120C
330
1201
100
AcDbEntity
  8
图层2
 62
     0
440
 16777216
100
AcDbTrace
 10
2952.587614347157
 20
891.2709945145323
 30
0.0
 11
2947.589059123516
 21
891.1508043477105
 31
0.0
 12
2949.727766234872
 22
906.2065651020475
 32
0.0
 13
2949.727766234872
 23
906.2065651020475
 33
0.0
  0
POINT
  5
120D
330
1201
100
AcDbEntity
  8
Defpoints
 62
     0
440
 16777216
100
AcDbPoint
 10
2949.727766234872
 20
906.2065651020475
 30
0.0
  0
POINT
  5
120E
330
1201
100
AcDbEntity
  8
Defpoints
 62
     0
440
 16777216
100
AcDbPoint
 10
2969.054345059796
 20
102.4388851404035
 30
0.0
  0
ENDBLK
  5
1208
330
1201
100
AcDbEntity
  8
0
100
AcDbBlockEnd
  0
BLOCK
  5
122F
330
1223
100
AcDbEntity
  8
0
100
AcDbBlockBegin
  2
*D82
 70
     1
 10
0.0
 20
0.0
 30
0.0
  3
*D82
  1

  0
LINE
  5
1224
330
1223
100
AcDbEntity
  8
图层2
 62
     0
440
 16777216
370
    -2
100
AcDbLine
 10
3497.054345059797
 20
450.4304419148501
 30
0.0
 11
3497.054345059797
 21
431.2823941492533
 31
0.0
  0
LINE
  5
1225
330
1223
100
AcDbEntity
  8
图层2
 62
     0
440
 16777216
370
    -2
100
AcDbLine
 10
3504.054345059796
 20
450.4304419148501
 30
0.0
 11
3504.054345059796
 21
431.2823941492533
 31
0.0
  0
LINE
  5
1226
330
1223
100
AcDbEntity
  8
图层2
 62
     0
440
 16777216
370
    -2
100
AcDbLine
 10
3482.054345059796
 20
432.5323941492533
 30
0.0
 11
3467.054345059796
 21
432.5323941492533
 31
0.0
  0
LINE
  5
1227
330
1223
100
AcDbEntity
  8
图层2
 62
     0
440
 16777216
370
    -2
100
AcDbLine
 10
3519.054345059796
 20
432.5323941492533
 30
0.0
 11
3548.054345059796
 21
432.5323941492533
 31
0.0
  0
LINE
  5
1228
330
1223
100
AcDbEntity
  8
图层2
 62
     0
440
 16777216
370
    -2
100
AcDbLine
 10
3497.054345059797
 20
432.5323941492533
 30
0.0
 11
3504.054345059796
 21
432.5323941492533
 31
0.0
  0
SOLID
  5
1229
330
1223
100
AcDbEntity
  8
图层2
 62
     0
440
 16777216
100
AcDbTrace
 10
3482.054345059796
 20
435.0323941492534
 30
0.0
 11
3482.054345059796
 21
430.0323941492534
 31
0.0
 12
3497.054345059797
 22
432.5323941492533
 32
0.0
 13
3497.054345059797
 23
432.5323941492533
 33
0.0
  0
SOLID
  5
122A
330
1223
100
AcDbEntity
  8
图层2
 62
     0
440
 16777216
100
AcDbTrace
 10
3519.054345059796
 20
435.0323941492534
 30
0.0
 11
3519.054345059796
 21
430.0323941492534
 31
0.0
 12
3504.054345059796
 22
432.5323941492533
 32
0.0
 13
3504.054345059796
 23
432.5323941492533
 33
0.0
  0
MTEXT
  5
122B
330
1223
100
AcDbEntity
  8
图层2
 62
     0
440
 16777216
100
AcDbMText
 10
3541.054345059797
 20
442.0323941492533
 30
0.0
 40
15.0
 41
0.0
 46
0.0
 71
     5
 72
     1
  1
7
 73
     1
 44
1.0
1001
ACAD
1000
MTEXTBEGIN
1070
    73
1070
     1
1070
    44
1040
1.0
1070
    74
1070
     0
1000
MTEXTEND
  0
POINT
  5
122C
330
1223
100
AcDbEntity
  8
Defpoints
 62
     0
440
 16777216
100
AcDbPoint
 10
3497.054345059797
 20
451.0554419148501
 30
0.0
  0
POINT
  5
122D
330
1223
100
AcDbEntity
  8
Defpoints
 62
     0
440
 16777216
100
AcDbPoint
 10
3504.054345059796
 20
451.0554419148501
 30
0.0
  0
POINT
  5
122E
330
1223
100
AcDbEntity
  8
Defpoints
 62
     0
440
 16777216
100
AcDbPoint
 10
3504.054345059796
 20
432.5323941492533
 30
0.0
  0
ENDBLK
  5
1230
330
1223
100
AcDbEntity
  8
0
100
AcDbBlockEnd
  0
BLOCK
  5
123E
330
1232
100
AcDbEntity
  8
0
100
AcDbBlockBegin
  2
*D83
 70
     1
 10
0.0
 20
0.0
 30
0.0
  3
*D83
  1

  0
LINE
  5
1233
330
1232
100
AcDbEntity
  8
图层2
 62
     0
440
 16777216
370
    -2
100
AcDbLine
 10
3479.159656451127
 20
906.4388851404034
 30
0.0
 11
3548.433434526116
 21
906.4388851404034
 31
0.0
  0
LINE
  5
1234
330
1232
100
AcDbEntity
  8
图层2
 62
     0
440
 16777216
370
    -2
100
AcDbLine
 10
3479.159656451127
 20
913.4388851404036
 30
0.0
 11
3548.433434526116
 21
913.4388851404036
 31
0.0
  0
LINE
  5
1235
330
1232
100
AcDbEntity
  8
图层2
 62
     0
440
 16777216
370
    -2
100
AcDbLine
 10
3547.183434526116
 20
891.4388851404034
 30
0.0
 11
3547.183434526116
 21
876.4388851404033
 31
0.0
  0
LINE
  5
1236
330
1232
100
AcDbEntity
  8
图层2
 62
     0
440
 16777216
370
    -2
100
AcDbLine
 10
3547.183434526116
 20
928.4388851404036
 30
0.0
 11
3547.183434526116
 21
957.4388851404036
 31
0.0
  0
LINE
  5
1237
330
1232
100
AcDbEntity
  8
图层2
 62
     0
440
 16777216
370
    -2
100
AcDbLine
 10
3547.183434526116
 20
906.4388851404034
 30
0.0
 11
3547.183434526116
 21
913.4388851404036
 31
0.0
  0
SOLID
  5
1238
330
1232
100
AcDbEntity
  8
图层2
 62
     0
440
 16777216
100
AcDbTrace
 10
3544.683434526116
 20
891.4388851404034
 30
0.0
 11
3549.683434526116
 21
891.4388851404034
 31
0.0
 12
3547.183434526116
 22
906.4388851404034
 32
0.0
 13
3547.183434526116
 23
906.4388851404034
 33
0.0
  0
SOLID
  5
1239
330
1232
100
AcDbEntity
  8
图层2
 62
     0
440
 16777216
100
AcDbTrace
 10
3544.683434526116
 20
928.4388851404036
 30
0.0
 11
3549.683434526116
 21
928.4388851404036
 31
0.0
 12
3547.183434526116
 22
913.4388851404036
 32
0.0
 13
3547.183434526116
 23
913.4388851404036
 33
0.0
  0
MTEXT
  5
123A
330
1232
100
AcDbEntity
  8
图层2
 62
     0
440
 16777216
100
AcDbMText
 10
3537.683434526116
 20
950.4388851404042
 30
0.0
 40
15.0
 41
0.0
 46
0.0
 71
     5
 72
     1
  1
7
 11
0.0000000000000001
 21
1.0
 31
0.0
 73
     1
 44
1.0
1001
ACAD
1000
MTEXTBEGIN
1070
    73
1070
     1
1070
    44
1040
1.0
1070
    74
1070
     0
1000
MTEXTEND
  0
POINT
  5
123B
330
1232
100
AcDbEntity
  8
Defpoints
 62
     0
440
 16777216
100
AcDbPoint
 10
3478.534656451127
 20
906.4388851404034
 30
0.0
  0
POINT
  5
123C
330
1232
100
AcDbEntity
  8
Defpoints
 62
     0
440
 16777216
100
AcDbPoint
 10
3478.534656451127
 20
913.4388851404036
 30
0.0
  0
POINT
  5
123D
330
1232
100
AcDbEntity
  8
Defpoints
 62
     0
440
 16777216
100
AcDbPoint
 10
3547.183434526116
 20
913.4388851404036
 30
0.0
  0
ENDBLK
  5
123F
330
1232
100
AcDbEntity
  8
0
100
AcDbBlockEnd
  0
BLOCK
  5
129E
330
129A
100
AcDbEntity
  8
0
100
AcDbBlockBegin
  2
A$C1647736A
 70
     0
 10
0.0
 20
0.0
 30
0.0
  3
A$C1647736A
  1

  0
MTEXT
  5
129B
330
129A
100
AcDbEntity
  8
图层2
100
AcDbMText
 10
178.2350399336128
 20
22.97467301992447
 30
0.0
 40
25.0
 41
0.0
 46
0.0
 71
     5
 72
     1
  1
TECO MODEL #301L
 73
     1
 44
1.0
  0
ENDBLK
  5
129F
330
129A
100
AcDbEntity
  8
0
100
AcDbBlockEnd
  0
BLOCK
  5
12AC
330
12AB
100
AcDbEntity
  8
0
100
AcDbBlockBegin
  2
*D86
 70
     1
 10
0.0
 20
0.0
 30
0.0
  3
*D86
  1

  0
LINE
  5
12AE
330
12AB
100
AcDbEntity
  8
图层2
 62
     0
440
 16777216
370
    -2
100
AcDbLine
 10
3702.696366328144
 20
730.5050869718106
 30
0.0
 11
3702.696366328144
 21
672.2310364519453
 31
0.0
  0
LINE
  5
12AF
330
12AB
100
AcDbEntity
  8
图层2
 62
     0
440
 16777216
370
    -2
100
AcDbLine
 10
3813.932751867969
 20
730.5050869718106
 30
0.0
 11
3813.932751867969
 21
672.2310364519453
 31
0.0
  0
LINE
  5
12B0
330
12AB
100
AcDbEntity
  8
图层2
 62
     0
440
 16777216
370
    -2
100
AcDbLine
 10
3717.696366328145
 20
673.4810364519453
 30
0.0
 11
3798.932751867969
 21
673.4810364519453
 31
0.0
  0
SOLID
  5
12B1
330
12AB
100
AcDbEntity
  8
图层2
 62
     0
440
 16777216
100
AcDbTrace
 10
3717.696366328145
 20
675.9810364519453
 30
0.0
 11
3717.696366328145
 21
670.9810364519453
 31
0.0
 12
3702.696366328144
 22
673.4810364519453
 32
0.0
 13
3702.696366328144
 23
673.4810364519453
 33
0.0
  0
SOLID
  5
12B2
330
12AB
100
AcDbEntity
  8
图层2
 62
     0
440
 16777216
100
AcDbTrace
 10
3798.932751867969
 20
675.9810364519453
 30
0.0
 11
3798.932751867969
 21
670.9810364519453
 31
0.0
 12
3813.932751867969
 22
673.4810364519453
 32
0.0
 13
3813.932751867969
 23
673.4810364519453
 33
0.0
  0
MTEXT
  5
12B3
330
12AB
100
AcDbEntity
  8
图层2
 62
     0
440
 16777216
100
AcDbMText
 10
3758.314559098057
 20
684.2310364519453
 30
0.0
 40
15.0
 41
0.0
 46
0.0
 71
     5
 72
     1
  1
111,24
 73
     1
 44
1.0
  0
POINT
  5
12B4
330
12AB
100
AcDbEntity
  8
Defpoints
 62
     0
440
 16777216
100
AcDbPoint
 10
3702.696366328144
 20
731.1300869718106
 30
0.0
  0
POINT
  5
12B5
330
12AB
100
AcDbEntity
  8
Defpoints
 62
     0
440
 16777216
100
AcDbPoint
 10
3813.932751867969
 20
731.1300869718106
 30
0.0
  0
POINT
  5
12B6
330
12AB
100
AcDbEntity
  8
Defpoints
 62
     0
440
 16777216
100
AcDbPoint
 10
3813.932751867969
 20
673.4810364519453
 30
0.0
  0
ENDBLK
  5
12AD
330
12AB
100
AcDbEntity
  8
0
100
AcDbBlockEnd
  0
ENDSEC
  0
SECTION
  2
ENTITIES
  0
ARC
  5
10ED
102
{ACAD_REACTORS
330
1126
102
}
330
1F
100
AcDbEntity
  8
图层1
 48
4.0
100
AcDbCircle
 10
4104.054345059798
 20
692.4388851404017
 30
0.0
 40
1304.0
100
AcDbArc
 50
179.9999999999998
 51
185.5299599540136
  0
ARC
  5
10EE
102
{ACAD_REACTORS
330
117E
102
}
330
1F
100
AcDbEntity
  8
图层1
 48
4.0
100
AcDbCircle
 10
2899.685752144669
 20
575.8357445324833
 30
0.0
 40
94.0
100
AcDbArc
 50
185.5299599540124
 51
264.3931292734606
  0
ARC
  5
10EF
102
{ACAD_REACTORS
330
11AE
102
}
330
1F
100
AcDbEntity
  8
图层1
 48
4.0
100
AcDbCircle
 10
2969.054345059797
 20
1282.438885140403
 30
0.0
 40
804.0
100
AcDbArc
 50
264.3931292734606
 51
270.0
  0
LINE
  5
10F0
102
{ACAD_REACTORS
330
1156
102
}
330
1F
100
AcDbEntity
  8
图层1
 48
4.0
100
AcDbLine
 10
2969.054345059797
 20
478.4388851404035
 30
0.0
 11
3328.054345059797
 21
478.4388851404035
 31
0.0
  0
ARC
  5
10F1
102
{ACAD_REACTORS
330
1156
330
11CE
102
}
330
1F
100
AcDbEntity
  8
图层1
 48
4.0
100
AcDbCircle
 10
3328.054345059797
 20
1282.438885140403
 30
0.0
 40
804.0
100
AcDbArc
 50
270.0
 51
275.6068707265394
  0
ARC
  5
10F2
102
{ACAD_REACTORS
330
11BE
102
}
330
1F
100
AcDbEntity
  8
图层1
 48
4.0
100
AcDbCircle
 10
3397.422937974925
 20
575.8357445324833
 30
0.0
 40
94.0
100
AcDbArc
 50
275.6068707265395
 51
354.4700400459876
  0
ARC
  5
10F3
102
{ACAD_REACTORS
330
1126
102
}
330
1F
100
AcDbEntity
  8
图层1
 48
4.0
100
AcDbCircle
 10
2193.054345059796
 20
692.4388851404017
 30
0.0
 40
1304.0
100
AcDbArc
 50
354.4700400459864
 51
0.0000000000001599
  0
ARC
  5
10F4
102
{ACAD_REACTORS
330
119E
102
}
330
1F
100
AcDbEntity
  8
图层1
 48
4.0
100
AcDbCircle
 10
2193.054345059796
 20
692.4388851404053
 30
0.0
 40
1304.0
100
AcDbArc
 50
0.0
 51
5.52995995401365
  0
ARC
  5
10F5
102
{ACAD_REACTORS
330
11DE
102
}
330
1F
100
AcDbEntity
  8
图层1
 48
4.0
100
AcDbCircle
 10
3397.422937974925
 20
809.0420257483216
 30
0.0
 40
94.0
100
AcDbArc
 50
5.529959954013512
 51
84.3931292734606
  0
ARC
  5
10F6
102
{ACAD_REACTORS
330
11EE
102
}
330
1F
100
AcDbEntity
  8
图层1
 48
4.0
100
AcDbCircle
 10
3328.054345059797
 20
102.4388851404035
 30
0.0
 40
804.0
100
AcDbArc
 50
84.39312927346056
 51
90.0
  0
LINE
  5
10F7
102
{ACAD_REACTORS
330
1156
102
}
330
1F
100
AcDbEntity
  8
图层1
 48
4.0
100
AcDbLine
 10
2969.054345059797
 20
906.4388851404034
 30
0.0
 11
3328.054345059797
 21
906.4388851404034
 31
0.0
  0
ARC
  5
10F8
102
{ACAD_REACTORS
330
120F
102
}
330
1F
100
AcDbEntity
  8
图层1
 48
4.0
100
AcDbCircle
 10
2969.054345059797
 20
102.4388851404035
 30
0.0
 40
804.0
100
AcDbArc
 50
90.0
 51
95.60687072653944
  0
ARC
  5
10F9
102
{ACAD_REACTORS
330
11FF
102
}
330
1F
100
AcDbEntity
  8
图层1
 48
4.0
100
AcDbCircle
 10
2899.685752144669
 20
809.0420257483216
 30
0.0
 40
94.0
100
AcDbArc
 50
95.60687072653939
 51
174.4700400459865
  0
ARC
  5
10FA
102
{ACAD_REACTORS
330
118E
102
}
330
1F
100
AcDbEntity
  8
图层1
 48
4.0
100
AcDbCircle
 10
4104.054345059798
 20
692.4388851404053
 30
0.0
 40
1304.0
100
AcDbArc
 50
174.4700400459864
 51
180.0
  0
ARC
  5
10FC
330
1F
100
AcDbEntity
  8
0
370
    15
100
AcDbCircle
 10
2899.685752144669
 20
575.8357445324833
 30
0.0
 40
101.0
100
AcDbArc
 50
185.5299599540124
 51
264.3931292734606
  0
ARC
  5
10FD
330
1F
100
AcDbEntity
  8
0
370
    15
100
AcDbCircle
 10
2969.054345059797
 20
1282.438885140403
 30
0.0
 40
811.0
100
AcDbArc
 50
264.3931292734606
 51
270.0
  0
LINE
  5
10FE
102
{ACAD_REACTORS
330
116E
102
}
330
1F
100
AcDbEntity
  8
图层2
100
AcDbLine
 10
2969.054345059797
 20
471.4388851404033
 30
0.0
 11
3328.054345059797
 21
471.4388851404033
 31
0.0
  0
ARC
  5
10FF
102
{ACAD_REACTORS
330
116E
102
}
330
1F
100
AcDbEntity
  8
0
370
    15
100
AcDbCircle
 10
3328.054345059797
 20
1282.438885140403
 30
0.0
 40
811.0
100
AcDbArc
 50
270.0
 51
275.6068707265394
  0
ARC
  5
1100
330
1F
100
AcDbEntity
  8
0
370
    15
100
AcDbCircle
 10
3397.422937974925
 20
575.8357445324833
 30
0.0
 40
101.0
100
AcDbArc
 50
275.6068707265395
 51
354.4700400459876
  0
ARC
  5
1101
102
{ACAD_REACTORS
330
113E
102
}
330
1F
100
AcDbEntity
  8
0
370
    15
100
AcDbCircle
 10
2193.054345059796
 20
692.4388851404017
 30
0.0
 40
1311.0
100
AcDbArc
 50
354.4700400459864
 51
0.0000000000001599
  0
ARC
  5
1102
330
1F
100
AcDbEntity
  8
0
370
    15
100
AcDbCircle
 10
2193.054345059796
 20
692.4388851404053
 30
0.0
 40
1311.0
100
AcDbArc
 50
0.0
 51
5.52995995401365
  0
ARC
  5
1103
330
1F
100
AcDbEntity
  8
0
370
    15
100
AcDbCircle
 10
3397.422937974925
 20
809.0420257483216
 30
0.0
 40
101.0
100
AcDbArc
 50
5.529959954013512
 51
84.3931292734606
  0
ARC
  5
1104
102
{ACAD_REACTORS
330
116E
102
}
330
1F
100
AcDbEntity
  8
0
370
    15
100
AcDbCircle
 10
3328.054345059797
 20
102.4388851404035
 30
0.0
 40
811.0
100
AcDbArc
 50
84.39312927346056
 51
90.0
  0
LINE
  5
1105
102
{ACAD_REACTORS
330
116E
102
}
330
1F
100
AcDbEntity
  8
图层2
100
AcDbLine
 10
2969.054345059797
 20
913.4388851404034
 30
0.0
 11
3328.054345059797
 21
913.4388851404034
 31
0.0
  0
ARC
  5
1106
330
1F
100
AcDbEntity
  8
0
370
    15
100
AcDbCircle
 10
2969.054345059797
 20
102.4388851404035
 30
0.0
 40
811.0
100
AcDbArc
 50
90.0
 51
95.60687072653944
  0
ARC
  5
1107
330
1F
100
AcDbEntity
  8
0
370
    15
100
AcDbCircle
 10
2899.685752144669
 20
809.0420257483216
 30
0.0
 40
101.0
100
AcDbArc
 50
95.60687072653939
 51
174.4700400459865
  0
ARC
  5
1108
330
1F
100
AcDbEntity
  8
0
370
    15
100
AcDbCircle
 10
4104.054345059798
 20
692.4388851404053
 30
0.0
 40
1311.0
100
AcDbArc
 50
174.4700400459864
 51
180.0
  0
ARC
  5
1109
102
{ACAD_REACTORS
330
113E
102
}
330
1F
100
AcDbEntity
  8
0
370
    15
100
AcDbCircle
 10
4104.054345059798
 20
692.4388851404017
 30
0.0
 40
1311.0
100
AcDbArc
 50
179.9999999999998
 51
185.5299599540136
  0
DIMENSION
  5
110F
102
{ACAD_XDICTIONARY
360
111C
102
}
102
{ACAD_REACTORS
330
1126
102
}
330
1F
100
AcDbEntity
  8
图层2
100
AcDbDimension
  2
*D68
 10
3497.054345059797
 20
432.5323941492533
 30
0.0
 11
3148.554345059797
 21
442.0323941492533
 31
0.0
 70
    32
 71
     5
 42
696.9999999999981
 73
     0
 74
     0
 75
     0
  3
ISO-25
100
AcDbAlignedDimension
 13
2800.054345059798
 23
692.4388851404053
 33
0.0
 14
3497.054345059797
 24
692.4388851404095
 34
0.0
100
AcDbRotatedDimension
1001
ACAD
1000
DSTYLE
1002
{
1070
    41
1040
15.0
1070
   140
1040
15.0
1070
   147
1040
2.0
1002
}
  0
DIMENSION
  5
1127
102
{ACAD_XDICTIONARY
360
1134
102
}
102
{ACAD_REACTORS
330
113E
102
}
330
1F
100
AcDbEntity
  8
图层2
100
AcDbDimension
  2
*D69
 10
3504.054345059796
 20
397.8019358289293
 30
0.0
 11
3148.554345059797
 21
407.3019358289292
 31
0.0
 70
    32
 71
     5
 42
710.9999999999981
 73
     0
 74
     0
 75
     0
  3
ISO-25
100
AcDbAlignedDimension
 13
2793.054345059798
 23
692.4388851404053
 33
0.0
 14
3504.054345059796
 24
692.4388851404097
 34
0.0
100
AcDbRotatedDimension
1001
ACAD
1000
DSTYLE
1002
{
1070
    41
1040
15.0
1070
   140
1040
15.0
1070
   147
1040
2.0
1002
}
  0
DIMENSION
  5
113F
102
{ACAD_XDICTIONARY
360
114C
102
}
102
{ACAD_REACTORS
330
1156
102
}
330
1F
100
AcDbEntity
  8
图层2
100
AcDbDimension
  2
*D70
 10
3547.183434526116
 20
478.4388851404032
 30
0.0
 11
3537.683434526116
 21
692.4388851404039
 31
0.0
 70
    32
 71
     5
 42
428.0000000000002
 73
     0
 74
     0
 75
     0
  3
ISO-25
100
AcDbAlignedDimension
 13
3328.054345059797
 23
906.4388851404034
 33
0.0
 14
3328.054345059797
 24
478.4388851404034
 34
0.0
 50
90.0
100
AcDbRotatedDimension
1001
ACAD
1000
DSTYLE
1002
{
1070
    41
1040
15.0
1070
   140
1040
15.0
1070
   147
1040
2.0
1002
}
  0
DIMENSION
  5
1157
102
{ACAD_XDICTIONARY
360
1164
102
}
102
{ACAD_REACTORS
330
116E
102
}
330
1F
100
AcDbEntity
  8
图层2
100
AcDbDimension
  2
*D71
 10
3587.217079115326
 20
471.4388851404034
 30
0.0
 11
3577.717079115326
 21
692.4388851404041
 31
0.0
 70
    32
 71
     5
 42
442.0
 73
     0
 74
     0
 75
     0
  3
ISO-25
100
AcDbAlignedDimension
 13
3328.054345059797
 23
913.4388851404036
 33
0.0
 14
3328.054345059797
 24
471.4388851404036
 34
0.0
 50
90.0
100
AcDbRotatedDimension
1001
ACAD
1000
DSTYLE
1002
{
1070
    41
1040
15.0
1070
   140
1040
15.0
1070
   147
1040
2.0
1002
}
  0
DIMENSION
  5
116F
102
{ACAD_XDICTIONARY
360
1178
102
}
102
{ACAD_REACTORS
330
117E
102
}
330
1F
100
AcDbEntity
  8
图层2
100
AcDbDimension
  2
*D72
 10
2899.685752144666
 20
575.8357445324828
 30
0.0
 11
2870.467025697802
 21
545.6651292781806
 31
0.0
 70
   164
 71
     5
 42
93.99999999999909
 73
     0
 74
     0
 75
     0
  3
ISO-25
100
AcDbRadialDimension
 15
2834.291459620727
 25
508.3110342014249
 35
0.0
 40
0.0
1001
ACAD
1000
DSTYLE
1002
{
1070
    41
1040
15.0
1070
   140
1040
15.0
1070
   147
1040
2.0
1070
   288
1070
     1
1002
}
  0
DIMENSION
  5
117F
102
{ACAD_XDICTIONARY
360
1188
102
}
102
{ACAD_REACTORS
330
118E
102
}
330
1F
100
AcDbEntity
  8
图层2
100
AcDbDimension
  2
*D73
 10
4104.054345059802
 20
692.4388851404054
 30
0.0
 11
2863.998645873719
 21
733.9409985338282
 31
0.0
 70
   164
 71
     5
 42
1304.000000000004
 73
     0
 74
     0
 75
     0
  3
ISO-25
100
AcDbRadialDimension
 15
2800.784039407048
 25
736.0566613765718
 35
0.0
 40
0.0
1001
ACAD
1000
DSTYLE
1002
{
1070
    41
1040
15.0
1070
   140
1040
15.0
1070
   147
1040
2.0
1070
   288
1070
     1
1002
}
  0
DIMENSION
  5
118F
102
{ACAD_XDICTIONARY
360
1198
102
}
102
{ACAD_REACTORS
330
119E
102
}
330
1F
100
AcDbEntity
  8
图层2
100
AcDbDimension
  2
*D74
 10
2193.054345059792
 20
692.4388851404033
 30
0.0
 11
3433.137847419936
 21
733.1017634719517
 31
0.0
 70
   164
 71
     5
 42
1304.000000000003
 73
     0
 74
     0
 75
     0
  3
ISO-25
100
AcDbRadialDimension
 15
3496.353871215447
 25
735.1746444346521
 35
0.0
 40
0.0
1001
ACAD
1000
DSTYLE
1002
{
1070
    41
1040
15.0
1070
   140
1040
15.0
1070
   147
1040
2.0
1070
   288
1070
     1
1002
}
  0
DIMENSION
  5
119F
102
{ACAD_XDICTIONARY
360
11A8
102
}
102
{ACAD_REACTORS
330
11AE
102
}
330
1F
100
AcDbEntity
  8
图层2
100
AcDbDimension
  2
*D75
 10
2969.054345059794
 20
1282.438885140402
 30
0.0
 11
2933.519787322858
 21
537.5359668306148
 31
0.0
 70
   164
 71
     5
 42
803.9999999999981
 73
     0
 74
     0
 75
     0
  3
ISO-25
100
AcDbRadialDimension
 15
2930.744208391343
 25
479.3521317765814
 35
0.0
 40
0.0
1001
ACAD
1000
DSTYLE
1002
{
1070
    41
1040
15.0
1070
   140
1040
15.0
1070
   147
1040
2.0
1070
   288
1070
     1
1002
}
  0
DIMENSION
  5
11AF
102
{ACAD_XDICTIONARY
360
11B8
102
}
102
{ACAD_REACTORS
330
11BE
102
}
330
1F
100
AcDbEntity
  8
图层2
100
AcDbDimension
  2
*D76
 10
3397.422937974926
 20
575.8357445324816
 30
0.0
 11
3427.604318447377
 21
546.6281381126271
 31
0.0
 70
   164
 71
     5
 42
93.9999999999984
 73
     0
 74
     0
 75
     0
  3
ISO-25
100
AcDbRadialDimension
 15
3464.971741889457
 25
510.4663396880439
 35
0.0
 40
0.0
1001
ACAD
1000
DSTYLE
1002
{
1070
    41
1040
15.0
1070
   140
1040
15.0
1070
   147
1040
2.0
1070
   288
1070
     1
1002
}
  0
DIMENSION
  5
11BF
102
{ACAD_XDICTIONARY
360
11C8
102
}
102
{ACAD_REACTORS
330
11CE
102
}
330
1F
100
AcDbEntity
  8
图层2
100
AcDbDimension
  2
*D77
 10
3328.054345059796
 20
1282.438885140402
 30
0.0
 11
3366.037930712316
 21
537.6568299585017
 31
0.0
 70
   164
 71
     5
 42
803.9999999999986
 73
     0
 74
     0
 75
     0
  3
ISO-25
100
AcDbRadialDimension
 15
3369.004801465597
 25
479.4824354370856
 35
0.0
 40
0.0
1001
ACAD
1000
DSTYLE
1002
{
1070
    41
1040
15.0
1070
   140
1040
15.0
1070
   147
1040
2.0
1070
   288
1070
     1
1002
}
  0
DIMENSION
  5
11CF
102
{ACAD_XDICTIONARY
360
11D8
102
}
102
{ACAD_REACTORS
330
11DE
102
}
330
1F
100
AcDbEntity
  8
图层2
100
AcDbDimension
  2
*D78
 10
3397.422937974929
 20
809.0420257483232
 30
0.0
 11
3427.932248971462
 21
837.9069169228376
 31
0.0
 70
   164
 71
     5
 42
93.99999999999682
 73
     0
 74
     0
 75
     0
  3
ISO-25
100
AcDbRadialDimension
 15
3465.705681633838
 25
873.6444012341436
 35
0.0
 40
0.0
1001
ACAD
1000
DSTYLE
1002
{
1070
    41
1040
15.0
1070
   140
1040
15.0
1070
   147
1040
2.0
1070
   288
1070
     1
1002
}
  0
DIMENSION
  5
11DF
102
{ACAD_XDICTIONARY
360
11E8
102
}
102
{ACAD_REACTORS
330
11EE
102
}
330
1F
100
AcDbEntity
  8
图层2
100
AcDbDimension
  2
*D79
 10
3328.054345059805
 20
102.4388851404035
 30
0.0
 11
3363.702744395965
 21
847.3363640761078
 31
0.0
 70
   164
 71
     5
 42
803.9999999999997
 73
     0
 74
     0
 75
     0
  3
ISO-25
100
AcDbRadialDimension
 15
3366.487215413507
 25
905.5197742645159
 35
0.0
 40
0.0
1001
ACAD
1000
DSTYLE
1002
{
1070
    41
1040
15.0
1070
   140
1040
15.0
1070
   147
1040
2.0
1070
   288
1070
     1
1002
}
  0
DIMENSION
  5
11F0
102
{ACAD_XDICTIONARY
360
11F9
102
}
102
{ACAD_REACTORS
330
11FF
102
}
330
1F
100
AcDbEntity
  8
图层2
100
AcDbDimension
  2
*D80
 10
2899.68575214467
 20
809.0420257483229
 30
0.0
 11
2869.693670848788
 21
838.4439824781246
 31
0.0
 70
   164
 71
     5
 42
93.99999999999977
 73
     0
 74
     0
 75
     0
  3
ISO-25
100
AcDbRadialDimension
 15
2832.560617815788
 25
874.8464050959736
 35
0.0
 40
0.0
1001
ACAD
1000
DSTYLE
1002
{
1070
    41
1040
15.0
1070
   140
1040
15.0
1070
   147
1040
2.0
1070
   288
1070
     1
1002
}
  0
DIMENSION
  5
1200
102
{ACAD_XDICTIONARY
360
1209
102
}
102
{ACAD_REACTORS
330
120F
102
}
330
1F
100
AcDbEntity
  8
图层2
100
AcDbDimension
  2
*D81
 10
2969.054345059796
 20
102.4388851404035
 30
0.0
 11
2951.127981678344
 21
847.9733967466174
 31
0.0
 70
   164
 71
     5
 42
804.0
 73
     0
 74
     0
 75
     0
  3
ISO-25
100
AcDbRadialDimension
 15
2949.727766234872
 25
906.2065651020475
 35
0.0
 40
0.0
1001
ACAD
1000
DSTYLE
1002
{
1070
    41
1040
15.0
1070
   140
1040
15.0
1070
   147
1040
2.0
1070
   288
1070
     1
1002
}
  0
DIMENSION
  5
1222
330
1F
100
AcDbEntity
  8
图层2
100
AcDbDimension
  2
*D82
 10
3504.054345059796
 20
432.5323941492533
 30
0.0
 11
3541.054345059797
 21
442.0323941492533
 31
0.0
 70
    32
 71
     5
 42
7.0
 73
     0
 74
     0
 75
     0
  3
ISO-25
100
AcDbAlignedDimension
 13
3497.054345059797
 23
451.0554419148501
 33
0.0
 14
3504.054345059796
 24
451.0554419148501
 34
0.0
100
AcDbRotatedDimension
1001
ACAD
1000
DSTYLE
1002
{
1070
    41
1040
15.0
1070
   140
1040
15.0
1070
   147
1040
2.0
1002
}
  0
DIMENSION
  5
1231
330
1F
100
AcDbEntity
  8
图层2
100
AcDbDimension
  2
*D83
 10
3547.183434526116
 20
913.4388851404036
 30
0.0
 11
3537.683434526116
 21
950.4388851404042
 31
0.0
 70
    32
 71
     5
 42
7.000000000000111
 73
     0
 74
     0
 75
     0
  3
ISO-25
100
AcDbAlignedDimension
 13
3478.534656451127
 23
906.4388851404034
 33
0.0
 14
3478.534656451127
 24
913.4388851404036
 34
0.0
 50
90.0
100
AcDbRotatedDimension
1001
ACAD
1000
DSTYLE
1002
{
1070
    41
1040
15.0
1070
   140
1040
15.0
1070
   147
1040
2.0
1002
}
  0
MTEXT
  5
12A7
330
1F
100
AcDbEntity
  8
图层2
100
AcDbMText
 10
3166.515347454092
 20
660.3338041625398
 30
0.0
 40
15.0
 41
0.0
 46
0.0
 71
     5
 72
     1
  1
TECO MODEL #502 and #603
 73
     1
 44
1.0
  0
ENDSEC
  0
SECTION
  2
OBJECTS
  0
DICTIONARY
  5
C
330
0
100
AcDbDictionary
281
     1
  3
ACAD_CIP_PREVIOUS_PRODUCT_INFO
350
1296
  3
ACAD_COLOR
350
6B
  3
ACAD_GROUP
350
D
  3
ACAD_LAYOUT
350
1A
  3
ACAD_MATERIAL
350
6A
  3
ACAD_MLEADERSTYLE
350
1291
  3
ACAD_MLINESTYLE
350
17
  3
ACAD_PLOTSETTINGS
350
19
  3
ACAD_PLOTSTYLENAME
350
E
  3
ACAD_SCALELIST
350
127F
  3
ACAD_TABLESTYLE
350
127D
  3
ACAD_VISUALSTYLE
350
1264
  3
ACDB_RECOMPOSE_DATA
350
12D1
  3
AcDbVariableDictionary
350
5E
  0
DICTIONARY
  5
1298
330
2
100
AcDbDictionary
280
     1
281
     1
  3
ACAD_LAYERSTATES
360
1299
  0
DICTIONARY
  5
12BF
330
10
100
AcDbDictionary
280
     1
281
     1
  3
ADSK_XREC_LAYER_RECONCILED
360
12C0
  0
DICTIONARY
  5
12C1
330
C3
100
AcDbDictionary
280
     1
281
     1
  3
ADSK_XREC_LAYER_RECONCILED
360
12C2
  0
DICTIONARY
  5
12C3
330
C4
100
AcDbDictionary
280
     1
281
     1
  3
ADSK_XREC_LAYER_RECONCILED
360
12C4
  0
DICTIONARY
  5
12C5
330
2EE
100
AcDbDictionary
280
     1
281
     1
  3
ADSK_XREC_LAYER_RECONCILED
360
12C6
  0
DICTIONARY
  5
12BD
330
1F
100
AcDbDictionary
280
     1
281
     1
  3
ACAD_SORTENTS
360
12BE
  0
DICTIONARY
  5
129C
330
129A
100
AcDbDictionary
280
     1
281
     1
  3
ACAD_SORTENTS
360
129D
  0
DICTIONARY
  5
111C
330
110F
100
AcDbDictionary
280
     1
281
     1
  3
ACAD_DIMASSOC
360
1126
  0
DICTIONARY
  5
1134
330
1127
100
AcDbDictionary
280
     1
281
     1
  3
ACAD_DIMASSOC
360
113E
  0
DICTIONARY
  5
114C
330
113F
100
AcDbDictionary
280
     1
281
     1
  3
ACAD_DIMASSOC
360
1156
  0
DICTIONARY
  5
1164
330
1157
100
AcDbDictionary
280
     1
281
     1
  3
ACAD_DIMASSOC
360
116E
  0
DICTIONARY
  5
1178
330
116F
100
AcDbDictionary
280
     1
281
     1
  3
ACAD_DIMASSOC
360
117E
  0
DICTIONARY
  5
1188
330
117F
100
AcDbDictionary
280
     1
281
     1
  3
ACAD_DIMASSOC
360
118E
  0
DICTIONARY
  5
1198
330
118F
100
AcDbDictionary
280
     1
281
     1
  3
ACAD_DIMASSOC
360
119E
  0
DICTIONARY
  5
11A8
330
119F
100
AcDbDictionary
280
     1
281
     1
  3
ACAD_DIMASSOC
360
11AE
  0
DICTIONARY
  5
11B8
330
11AF
100
AcDbDictionary
280
     1
281
     1
  3
ACAD_DIMASSOC
360
11BE
  0
DICTIONARY
  5
11C8
330
11BF
100
AcDbDictionary
280
     1
281
     1
  3
ACAD_DIMASSOC
360
11CE
  0
DICTIONARY
  5
11D8
330
11CF
100
AcDbDictionary
280
     1
281
     1
  3
ACAD_DIMASSOC
360
11DE
  0
DICTIONARY
  5
11E8
330
11DF
100
AcDbDictionary
280
     1
281
     1
  3
ACAD_DIMASSOC
360
11EE
  0
DICTIONARY
  5
11F9
330
11F0
100
AcDbDictionary
280
     1
281
     1
  3
ACAD_DIMASSOC
360
11FF
  0
DICTIONARY
  5
1209
330
1200
100
AcDbDictionary
280
     1
281
     1
  3
ACAD_DIMASSOC
360
120F
  0
XRECORD
  5
1296
102
{ACAD_REACTORS
330
C
102
}
330
C
100
AcDbXrecord
280
     1
300
ACD
300
2012
300
ACD_F_S
  0
DICTIONARY
  5
6B
102
{ACAD_REACTORS
330
C
102
}
330
C
100
AcDbDictionary
281
     1
  0
DICTIONARY
  5
D
102
{ACAD_REACTORS
330
C
102
}
330
C
100
AcDbDictionary
281
     1
  0
DICTIONARY
  5
1A
102
{ACAD_REACTORS
330
C
102
}
330
C
100
AcDbDictionary
281
     1
  3
Model
350
22
  3
布局1
350
51
  3
布局2
350
56
  0
DICTIONARY
  5
6A
102
{ACAD_REACTORS
330
C
102
}
330
C
100
AcDbDictionary
281
     1
  3
ByBlock
350
1254
  3
ByLayer
350
124C
  3
Global
350
125C
  0
DICTIONARY
  5
1291
102
{ACAD_REACTORS
330
C
102
}
330
C
100
AcDbDictionary
281
     1
  3
Standard
350
1292
  0
DICTIONARY
  5
17
102
{ACAD_REACTORS
330
C
102
}
330
C
100
AcDbDictionary
281
     1
  3
Standard
350
18
  0
DICTIONARY
  5
19
102
{ACAD_REACTORS
330
C
102
}
330
C
100
AcDbDictionary
281
     1
  0
ACDBDICTIONARYWDFLT
  5
E
102
{ACAD_REACTORS
330
C
102
}
330
C
100
AcDbDictionary
281
     1
  3
Normal
350
F
100
AcDbDictionaryWithDefault
340
F
  0
DICTIONARY
  5
127F
102
{ACAD_REACTORS
330
C
102
}
330
C
100
AcDbDictionary
281
     1
  3
A0
350
1280
  3
A1
350
1281
  3
A2
350
1282
  3
A3
350
1283
  3
A4
350
1284
  3
A5
350
1285
  3
A6
350
1286
  3
A7
350
1287
  3
A8
350
1288
  3
A9
350
1289
  3
B0
350
128A
  3
B1
350
128B
  3
B2
350
128C
  3
B3
350
128D
  3
B4
350
128E
  3
B5
350
128F
  3
B6
350
1290
  0
DICTIONARY
  5
127D
102
{ACAD_REACTORS
330
C
102
}
330
C
100
AcDbDictionary
281
     1
  3
Standard
350
127E
  0
DICTIONARY
  5
1264
102
{ACAD_REACTORS
330
C
102
}
330
C
100
AcDbDictionary
281
     1
  3
2dWireframe
350
126A
  3
Basic
350
1269
  3
Brighten
350
1270
  3
ColorChange
350
1274
  3
Conceptual
350
126D
  3
Dim
350
126F
  3
EdgeColorOff
350
127C
  3
Facepattern
350
1273
  3
Flat
350
1265
  3
FlatWithEdges
350
1266
  3
Gouraud
350
1267
  3
GouraudWithEdges
350
1268
  3
Hidden
350
126C
  3
JitterOff
350
127A
  3
Linepattern
350
1272
  3
OverhangOff
350
127B
  3
Realistic
350
126E
  3
Shaded
350
1279
  3
Shaded with edges
350
1278
  3
Shades of Gray
350
1275
  3
Sketchy
350
1276
  3
Thicken
350
1271
  3
Wireframe
350
126B
  3
X-Ray
350
1277
  0
XRECORD
  5
12D1
102
{ACAD_REACTORS
330
C
102
}
330
C
100
AcDbXrecord
280
     1
 90
        1
330
127E
  0
DICTIONARY
  5
5E
102
{ACAD_REACTORS
330
C
102
}
330
C
100
AcDbDictionary
281
     1
  3
CANNOSCALE
350
12CA
  3
CMLEADERSTYLE
350
12C8
  3
CTABLESTYLE
350
12C7
  3
DIMASSOC
350
5F
  3
HIDETEXT
350
63
  3
LAYEREVAL
350
12CC
  3
LAYERNOTIFY
350
12CD
  3
LIGHTINGUNITS
350
12CB
  3
MSLTSCALE
350
12C9
  3
PROJECTNAME
350
1217
  3
XCLIPFRAME
350
12CE
  0
DICTIONARY
  5
1299
102
{ACAD_REACTORS
330
1298
102
}
330
1298
100
AcDbDictionary
281
     1
  0
XRECORD
  5
12C0
102
{ACAD_REACTORS
330
12BF
102
}
330
12BF
100
AcDbXrecord
280
     1
290
     1
  0
XRECORD
  5
12C2
102
{ACAD_REACTORS
330
12C1
102
}
330
12C1
100
AcDbXrecord
280
     1
290
     1
  0
XRECORD
  5
12C4
102
{ACAD_REACTORS
330
12C3
102
}
330
12C3
100
AcDbXrecord
280
     1
290
     1
  0
XRECORD
  5
12C6
102
{ACAD_REACTORS
330
12C5
102
}
330
12C5
100
AcDbXrecord
280
     1
290
     1
  0
SORTENTSTABLE
  5
12BE
102
{ACAD_REACTORS
330
12BD
102
}
330
12BD
100
AcDbSortentsTable
330
1F
331
117F
  5
117F
331
1103
  5
1103
331
10F2
  5
10F2
331
1101
  5
1101
331
10F0
  5
10F0
331
11F0
  5
11F0
331
11BF
  5
11BF
331
10FF
  5
10FF
331
10EE
  5
10EE
331
110F
  5
110F
331
10FD
  5
10FD
331
12A7
  5
12A7
331
116F
  5
116F
331
10F9
  5
10F9
331
11AF
  5
11AF
331
1109
  5
1109
331
10F7
  5
10F7
331
1106
  5
1106
331
10F5
  5
10F5
331
1157
  5
1157
331
1104
  5
1104
331
10F3
  5
10F3
331
119F
  5
119F
331
1102
  5
1102
331
10F1
  5
10F1
331
1222
  5
1222
331
1100
  5
1100
331
10EF
  5
10EF
331
11DF
  5
11DF
331
10FE
  5
10FE
331
10ED
  5
10ED
331
113F
  5
113F
331
10FC
  5
10FC
331
118F
  5
118F
331
10FA
  5
10FA
331
10F8
  5
10F8
331
1231
  5
1231
331
1200
  5
1200
331
11CF
  5
11CF
331
1108
  5
1108
331
1107
  5
1107
331
10F6
  5
10F6
331
1127
  5
1127
331
1105
  5
1105
331
10F4
  5
10F4
  0
SORTENTSTABLE
  5
129D
102
{ACAD_REACTORS
330
129C
102
}
330
129C
100
AcDbSortentsTable
330
129A
  0
DIMASSOC
  5
1126
102
{ACAD_REACTORS
330
111C
102
}
330
111C
100
AcDbDimAssoc
330
110F
 90
        3
 70
     0
 71
     0
  1
AcDbOsnapPointRef
 72
    13
331
10ED
 73
     2
 91
        0
 40
3.14159265358979
 10
0.0
 20
0.0
 30
2.000000000000000E+50
 75
     0
  1
AcDbOsnapPointRef
 72
     8
331
10F3
 73
     2
 91
        0
 40
6.283185307179592
 10
0.0
 20
0.0
 30
0.0
 75
     1
  1
AcDbOsnapPointRef
 72
    13
331
10ED
 73
     2
 91
        0
 40
3.14159265358979
 10
0.0
 20
0.0
 30
2.000000000000000E+50
 75
     0
  0
DIMASSOC
  5
113E
102
{ACAD_REACTORS
330
1134
102
}
330
1134
100
AcDbDimAssoc
330
1127
 90
        3
 70
     0
 71
     0
  1
AcDbOsnapPointRef
 72
    13
331
1109
 73
     2
 91
        0
 40
3.14159265358979
 10
0.0
 20
0.0
 30
2.000000000000000E+50
 75
     0
  1
AcDbOsnapPointRef
 72
     8
331
1101
 73
     2
 91
        0
 40
6.283185307179592
 10
0.0
 20
0.0
 30
0.0
 75
     1
  1
AcDbOsnapPointRef
 72
    13
331
1109
 73
     2
 91
        0
 40
3.14159265358979
 10
0.0
 20
0.0
 30
2.000000000000000E+50
 75
     0
  0
DIMASSOC
  5
1156
102
{ACAD_REACTORS
330
114C
102
}
330
114C
100
AcDbDimAssoc
330
113F
 90
        3
 70
     0
 71
     0
  1
AcDbOsnapPointRef
 72
     1
331
10F7
 73
     2
 91
        0
 40
1.0
 10
0.0
 20
0.0
 30
2.000000000000000E+50
 75
     0
  1
AcDbOsnapPointRef
 72
     6
331
10F0
 73
     2
 91
        0
 40
1.0
 10
0.0
 20
0.0
 30
0.0
332
10F1
 74
     2
 92
        0
 75
     0
  0
DIMASSOC
  5
116E
102
{ACAD_REACTORS
330
1164
102
}
330
1164
100
AcDbDimAssoc
330
1157
 90
        3
 70
     0
 71
     0
  1
AcDbOsnapPointRef
 72
     6
331
1105
 73
     2
 91
        0
 40
1.0
 10
0.0
 20
0.0
 30
0.0
332
1104
 74
     2
 92
        0
 75
     0
  1
AcDbOsnapPointRef
 72
     6
331
10FE
 73
     2
 91
        0
 40
1.0
 10
0.0
 20
0.0
 30
0.0
332
10FF
 74
     2
 92
        0
 75
     0
  0
DIMASSOC
  5
117E
102
{ACAD_REACTORS
330
1178
102
}
330
1178
100
AcDbDimAssoc
330
116F
 90
        2
 70
     0
 71
     0
  1
AcDbOsnapPointRef
 72
     3
331
10EE
 73
     2
 91
        0
 40
0.0
 10
0.0
 20
0.0
 30
0.0
 75
     0
  0
DIMASSOC
  5
118E
102
{ACAD_REACTORS
330
1188
102
}
330
1188
100
AcDbDimAssoc
330
117F
 90
        2
 70
     0
 71
     0
  1
AcDbOsnapPointRef
 72
     3
331
10FA
 73
     2
 91
        0
 40
0.0
 10
0.0
 20
0.0
 30
0.0
 75
     0
  0
DIMASSOC
  5
119E
102
{ACAD_REACTORS
330
1198
102
}
330
1198
100
AcDbDimAssoc
330
118F
 90
        2
 70
     0
 71
     0
  1
AcDbOsnapPointRef
 72
     3
331
10F4
 73
     2
 91
        0
 40
0.0
 10
0.0
 20
0.0
 30
0.0
 75
     0
  0
DIMASSOC
  5
11AE
102
{ACAD_REACTORS
330
11A8
102
}
330
11A8
100
AcDbDimAssoc
330
119F
 90
        2
 70
     0
 71
     0
  1
AcDbOsnapPointRef
 72
     3
331
10EF
 73
     2
 91
        0
 40
0.0
 10
0.0
 20
0.0
 30
0.0
 75
     0
  0
DIMASSOC
  5
11BE
102
{ACAD_REACTORS
330
11B8
102
}
330
11B8
100
AcDbDimAssoc
330
11AF
 90
        2
 70
     0
 71
     0
  1
AcDbOsnapPointRef
 72
     3
331
10F2
 73
     2
 91
        0
 40
0.0
 10
0.0
 20
0.0
 30
0.0
 75
     0
  0
DIMASSOC
  5
11CE
102
{ACAD_REACTORS
330
11C8
102
}
330
11C8
100
AcDbDimAssoc
330
11BF
 90
        2
 70
     0
 71
     0
  1
AcDbOsnapPointRef
 72
     3
331
10F1
 73
     2
 91
        0
 40
0.0
 10
0.0
 20
0.0
 30
0.0
 75
     0
  0
DIMASSOC
  5
11DE
102
{ACAD_REACTORS
330
11D8
102
}
330
11D8
100
AcDbDimAssoc
330
11CF
 90
        2
 70
     0
 71
     0
  1
AcDbOsnapPointRef
 72
     3
331
10F5
 73
     2
 91
        0
 40
0.0
 10
0.0
 20
0.0
 30
0.0
 75
     0
  0
DIMASSOC
  5
11EE
102
{ACAD_REACTORS
330
11E8
102
}
330
11E8
100
AcDbDimAssoc
330
11DF
 90
        2
 70
     0
 71
     0
  1
AcDbOsnapPointRef
 72
     3
331
10F6
 73
     2
 91
        0
 40
0.0
 10
0.0
 20
0.0
 30
0.0
 75
     0
  0
DIMASSOC
  5
11FF
102
{ACAD_REACTORS
330
11F9
102
}
330
11F9
100
AcDbDimAssoc
330
11F0
 90
        2
 70
     0
 71
     0
  1
AcDbOsnapPointRef
 72
     3
331
10F9
 73
     2
 91
        0
 40
0.0
 10
0.0
 20
0.0
 30
0.0
 75
     0
  0
DIMASSOC
  5
120F
102
{ACAD_REACTORS
330
1209
102
}
330
1209
100
AcDbDimAssoc
330
1200
 90
        2
 70
     0
 71
     0
  1
AcDbOsnapPointRef
 72
     3
331
10F8
 73
     2
 91
        0
 40
0.0
 10
0.0
 20
0.0
 30
0.0
 75
     0
  0
LAYOUT
  5
22
102
{ACAD_REACTORS
330
1A
102
}
330
1A
100
AcDbPlotSettings
  1

  2
none_device
  4
ANSI_A_(8.50_x_11.00_Inches)
  6

 40
6.349999904632567
 41
19.04999923706055
 42
6.350006103515625
 43
19.04998779296875
 44
215.8999938964844
 45
279.3999938964844
 46
0.0
 47
0.0
 48
0.0
 49
0.0
140
0.0
141
0.0
142
1.0
143
78.436453180766
 70
 11952
 72
     0
 73
     1
 74
     0
  7

 75
     0
147
0.0127491741332998
 76
     0
 77
     2
 78
   300
148
0.0
149
0.0
100
AcDbLayout
  1
Model
 70
     1
 71
     0
 10
0.0
 20
0.0
 11
12.0
 21
9.0
 12
0.0
 22
0.0
 32
0.0
 14
0.0
 24
0.0
 34
0.0
 15
0.0
 25
0.0
 35
0.0
146
0.0
 13
0.0
 23
0.0
 33
0.0
 16
1.0
 26
0.0
 36
0.0
 17
0.0
 27
1.0
 37
0.0
 76
     0
330
1F
331
1240
  0
LAYOUT
  5
51
102
{ACAD_REACTORS
330
1A
102
}
330
1A
100
AcDbPlotSettings
  1

  2
None
  4

  6

 40
0.0
 41
0.0
 42
0.0
 43
0.0
 44
0.0
 45
0.0
 46
0.0
 47
0.0
 48
0.0
 49
0.0
140
0.0
141
0.0
142
1.0
143
1.0
 70
   688
 72
     0
 73
     0
 74
     5
  7

 75
    16
147
1.0
 76
     0
 77
     2
 78
   300
148
0.0
149
0.0
100
AcDbLayout
  1
布局1
 70
     1
 71
     1
 10
0.0
 20
0.0
 11
12.0
 21
9.0
 12
0.0
 22
0.0
 32
0.0
 14
0.0
 24
0.0
 34
0.0
 15
0.0
 25
0.0
 35
0.0
146
0.0
 13
0.0
 23
0.0
 33
0.0
 16
1.0
 26
0.0
 36
0.0
 17
0.0
 27
1.0
 37
0.0
 76
     0
330
50
  0
LAYOUT
  5
56
102
{ACAD_REACTORS
330
1A
102
}
330
1A
100
AcDbPlotSettings
  1

  2
None
  4

  6

 40
0.0
 41
0.0
 42
0.0
 43
0.0
 44
0.0
 45
0.0
 46
0.0
 47
0.0
 48
0.0
 49
0.0
140
0.0
141
0.0
142
1.0
143
1.0
 70
   688
 72
     0
 73
     0
 74
     5
  7

 75
    16
147
1.0
 76
     0
 77
     2
 78
   300
148
0.0
149
0.0
100
AcDbLayout
  1
布局2
 70
     1
 71
     2
 10
0.0
 20
0.0
 11
12.0
 21
9.0
 12
0.0
 22
0.0
 32
0.0
 14
0.0
 24
0.0
 34
0.0
 15
0.0
 25
0.0
 35
0.0
146
0.0
 13
0.0
 23
0.0
 33
0.0
 16
1.0
 26
0.0
 36
0.0
 17
0.0
 27
1.0
 37
0.0
 76
     0
330
55
  0
MATERIAL
  5
1254
102
{ACAD_XDICTIONARY
360
1255
102
}
102
{ACAD_REACTORS
330
6A
102
}
330
6A
100
AcDbMaterial
  1
ByBlock
 72
     0
 43
0.0008202099737533
 43
0.0
 43
0.0
 43
0.0
 43
0.0
 43
0.0008202099737533
 43
0.0
 43
0.0
 43
0.0
 43
0.0
 43
1.0
 43
0.0
 43
0.0
 43
0.0
 43
0.0
 43
1.0
 77
     0
 47
0.0008202099737533
 47
0.0
 47
0.0
 47
0.0
 47
0.0
 47
0.0008202099737533
 47
0.0
 47
0.0
 47
0.0
 47
0.0
 47
1.0
 47
0.0
 47
0.0
 47
0.0
 47
0.0
 47
1.0
171
     0
 49
0.0008202099737533
 49
0.0
 49
0.0
 49
0.0
 49
0.0
 49
0.0008202099737533
 49
0.0
 49
0.0
 49
0.0
 49
0.0
 49
1.0
 49
0.0
 49
0.0
 49
0.0
 49
0.0
 49
1.0
175
     0
142
0.0008202099737533
142
0.0
142
0.0
142
0.0
142
0.0
142
0.0008202099737533
142
0.0
142
0.0
142
0.0
142
0.0
142
1.0
142
0.0
142
0.0
142
0.0
142
0.0
142
1.0
179
     0
144
0.0008202099737533
144
0.0
144
0.0
144
0.0
144
0.0
144
0.0008202099737533
144
0.0
144
0.0
144
0.0
144
0.0
144
1.0
144
0.0
144
0.0
144
0.0
144
0.0
144
1.0
147
0.0008202099737533
147
0.0
147
0.0
147
0.0
147
0.0
147
0.0008202099737533
147
0.0
147
0.0
147
0.0
147
0.0
147
1.0
147
0.0
147
0.0
147
0.0
147
0.0
147
1.0
  0
MATERIAL
  5
124C
102
{ACAD_XDICTIONARY
360
124D
102
}
102
{ACAD_REACTORS
330
6A
102
}
330
6A
100
AcDbMaterial
  1
ByLayer
 72
     0
 43
0.0008202099737533
 43
0.0
 43
0.0
 43
0.0
 43
0.0
 43
0.0008202099737533
 43
0.0
 43
0.0
 43
0.0
 43
0.0
 43
1.0
 43
0.0
 43
0.0
 43
0.0
 43
0.0
 43
1.0
 77
     0
 47
0.0008202099737533
 47
0.0
 47
0.0
 47
0.0
 47
0.0
 47
0.0008202099737533
 47
0.0
 47
0.0
 47
0.0
 47
0.0
 47
1.0
 47
0.0
 47
0.0
 47
0.0
 47
0.0
 47
1.0
171
     0
 49
0.0008202099737533
 49
0.0
 49
0.0
 49
0.0
 49
0.0
 49
0.0008202099737533
 49
0.0
 49
0.0
 49
0.0
 49
0.0
 49
1.0
 49
0.0
 49
0.0
 49
0.0
 49
0.0
 49
1.0
175
     0
142
0.0008202099737533
142
0.0
142
0.0
142
0.0
142
0.0
142
0.0008202099737533
142
0.0
142
0.0
142
0.0
142
0.0
142
1.0
142
0.0
142
0.0
142
0.0
142
0.0
142
1.0
179
     0
144
0.0008202099737533
144
0.0
144
0.0
144
0.0
144
0.0
144
0.0008202099737533
144
0.0
144
0.0
144
0.0
144
0.0
144
1.0
144
0.0
144
0.0
144
0.0
144
0.0
144
1.0
147
0.0008202099737533
147
0.0
147
0.0
147
0.0
147
0.0
147
0.0008202099737533
147
0.0
147
0.0
147
0.0
147
0.0
147
1.0
147
0.0
147
0.0
147
0.0
147
0.0
147
1.0
  0
MATERIAL
  5
125C
102
{ACAD_XDICTIONARY
360
125D
102
}
102
{ACAD_REACTORS
330
6A
102
}
330
6A
100
AcDbMaterial
  1
Global
 72
     0
 43
0.0008202099737533
 43
0.0
 43
0.0
 43
0.0
 43
0.0
 43
0.0008202099737533
 43
0.0
 43
0.0
 43
0.0
 43
0.0
 43
1.0
 43
0.0
 43
0.0
 43
0.0
 43
0.0
 43
1.0
 77
     0
 47
0.0008202099737533
 47
0.0
 47
0.0
 47
0.0
 47
0.0
 47
0.0008202099737533
 47
0.0
 47
0.0
 47
0.0
 47
0.0
 47
1.0
 47
0.0
 47
0.0
 47
0.0
 47
0.0
 47
1.0
171
     0
 49
0.0008202099737533
 49
0.0
 49
0.0
 49
0.0
 49
0.0
 49
0.0008202099737533
 49
0.0
 49
0.0
 49
0.0
 49
0.0
 49
1.0
 49
0.0
 49
0.0
 49
0.0
 49
0.0
 49
1.0
175
     0
142
0.0008202099737533
142
0.0
142
0.0
142
0.0
142
0.0
142
0.0008202099737533
142
0.0
142
0.0
142
0.0
142
0.0
142
1.0
142
0.0
142
0.0
142
0.0
142
0.0
142
1.0
179
     0
144
0.0008202099737533
144
0.0
144
0.0
144
0.0
144
0.0
144
0.0008202099737533
144
0.0
144
0.0
144
0.0
144
0.0
144
1.0
144
0.0
144
0.0
144
0.0
144
0.0
144
1.0
147
0.0008202099737533
147
0.0
147
0.0
147
0.0
147
0.0
147
0.0008202099737533
147
0.0
147
0.0
147
0.0
147
0.0
147
1.0
147
0.0
147
0.0
147
0.0
147
0.0
147
1.0
  0
MLEADERSTYLE
  5
1292
102
{ACAD_REACTORS
330
1291
102
}
330
1291
100
AcDbMLeaderStyle
170
     2
171
     1
172
     0
 90
        2
 40
0.0
 41
0.0
173
     1
 91
-1056964608
340
14
 92
       -2
290
     1
 42
2.0
291
     1
 43
0.36
  3
Standard
 44
4.0
300

342
11
174
     1
178
     6
175
     1
176
     0
 93
-1056964608
 45
4.0
292
     0
297
     0
 46
4.0
 94
-1056964608
 47
1.0
 49
1.0
140
1.0
293
     1
141
0.0
294
     1
177
     0
142
1.0
295
     0
296
     0
143
0.125
1001
ACAD_MLEADERVER
1070
     2
  0
MLINESTYLE
  5
18
102
{ACAD_REACTORS
330
17
102
}
330
17
100
AcDbMlineStyle
  2
STANDARD
 70
     0
  3

 62
   256
 51
90.0
 52
90.0
 71
     2
 49
0.5
 62
   256
  6
BYLAYER
 49
-0.5
 62
   256
  6
BYLAYER
  0
ACDBPLACEHOLDER
  5
F
102
{ACAD_REACTORS
330
E
102
}
330
E
  0
SCALE
  5
1280
102
{ACAD_REACTORS
330
127F
102
}
330
127F
100
AcDbScale
 70
     0
300
1:1
140
1.0
141
1.0
290
     1
  0
SCALE
  5
1281
102
{ACAD_REACTORS
330
127F
102
}
330
127F
100
AcDbScale
 70
     0
300
1:2
140
1.0
141
2.0
290
     0
  0
SCALE
  5
1282
102
{ACAD_REACTORS
330
127F
102
}
330
127F
100
AcDbScale
 70
     0
300
1:4
140
1.0
141
4.0
290
     0
  0
SCALE
  5
1283
102
{ACAD_REACTORS
330
127F
102
}
330
127F
100
AcDbScale
 70
     0
300
1:5
140
1.0
141
5.0
290
     0
  0
SCALE
  5
1284
102
{ACAD_REACTORS
330
127F
102
}
330
127F
100
AcDbScale
 70
     0
300
1:8
140
1.0
141
8.0
290
     0
  0
SCALE
  5
1285
102
{ACAD_REACTORS
330
127F
102
}
330
127F
100
AcDbScale
 70
     0
300
1:10
140
1.0
141
10.0
290
     0
  0
SCALE
  5
1286
102
{ACAD_REACTORS
330
127F
102
}
330
127F
100
AcDbScale
 70
     0
300
1:16
140
1.0
141
16.0
290
     0
  0
SCALE
  5
1287
102
{ACAD_REACTORS
330
127F
102
}
330
127F
100
AcDbScale
 70
     0
300
1:20
140
1.0
141
20.0
290
     0
  0
SCALE
  5
1288
102
{ACAD_REACTORS
330
127F
102
}
330
127F
100
AcDbScale
 70
     0
300
1:30
140
1.0
141
30.0
290
     0
  0
SCALE
  5
1289
102
{ACAD_REACTORS
330
127F
102
}
330
127F
100
AcDbScale
 70
     0
300
1:40
140
1.0
141
40.0
290
     0
  0
SCALE
  5
128A
102
{ACAD_REACTORS
330
127F
102
}
330
127F
100
AcDbScale
 70
     0
300
1:50
140
1.0
141
50.0
290
     0
  0
SCALE
  5
128B
102
{ACAD_REACTORS
330
127F
102
}
330
127F
100
AcDbScale
 70
     0
300
1:100
140
1.0
141
100.0
290
     0
  0
SCALE
  5
128C
102
{ACAD_REACTORS
330
127F
102
}
330
127F
100
AcDbScale
 70
     0
300
2:1
140
2.0
141
1.0
290
     0
  0
SCALE
  5
128D
102
{ACAD_REACTORS
330
127F
102
}
330
127F
100
AcDbScale
 70
     0
300
4:1
140
4.0
141
1.0
290
     0
  0
SCALE
  5
128E
102
{ACAD_REACTORS
330
127F
102
}
330
127F
100
AcDbScale
 70
     0
300
8:1
140
8.0
141
1.0
290
     0
  0
SCALE
  5
128F
102
{ACAD_REACTORS
330
127F
102
}
330
127F
100
AcDbScale
 70
     0
300
10:1
140
10.0
141
1.0
290
     0
  0
SCALE
  5
1290
102
{ACAD_REACTORS
330
127F
102
}
330
127F
100
AcDbScale
 70
     0
300
100:1
140
100.0
141
1.0
290
     0
  0
TABLESTYLE
  5
127E
102
{ACAD_XDICTIONARY
360
12CF
102
}
102
{ACAD_REACTORS
330
127D
102
}
330
127D
100
AcDbTableStyle
  3
Standard
 70
     0
 71
     0
 40
1.5
 41
1.5
280
     0
281
     0
  7
Standard
140
4.5
170
     2
 62
     0
 63
     7
283
     0
 90
      512
 91
        0
  1

274
    -2
284
     1
 64
     0
275
    -2
285
     1
 65
     0
276
    -2
286
     1
 66
     0
277
    -2
287
     1
 67
     0
278
    -2
288
     1
 68
     0
279
    -2
289
     1
 69
     0
  7
Standard
140
6.0
170
     5
 62
     0
 63
     7
283
     0
 90
      512
 91
        0
  1

274
    -2
284
     1
 64
     0
275
    -2
285
     1
 65
     0
276
    -2
286
     1
 66
     0
277
    -2
287
     1
 67
     0
278
    -2
288
     1
 68
     0
279
    -2
289
     1
 69
     0
  7
Standard
140
4.5
170
     5
 62
     0
 63
     7
283
     0
 90
      512
 91
        0
  1

274
    -2
284
     1
 64
     0
275
    -2
285
     1
 65
     0
276
    -2
286
     1
 66
     0
277
    -2
287
     1
 67
     0
278
    -2
288
     1
 68
     0
279
    -2
289
     1
 69
     0
  0
VISUALSTYLE
  5
126A
102
{ACAD_XDICTIONARY
360
12DC
102
}
102
{ACAD_REACTORS
330
1264
102
}
330
1264
100
AcDbVisualStyle
  2
2dWireframe
 70
     4
 71
     0
 72
     2
 73
     0
 90
        0
 40
-0.6
 41
-30.0
 62
     5
 63
     7
421
 16777215
 74
     1
 91
        4
 64
     7
 65
   257
 75
     1
175
     1
 42
1.0
 92
        0
 66
   257
 43
1.0
 76
     1
 77
     6
 78
     2
 67
     7
 79
     5
170
     0
171
     0
290
     0
174
     0
 93
        1
 44
0.0
173
     0
291
     0
 45
0.0
1001
ACAD
1000
AcDbSavedByObjectVersion
1070
     0
  0
VISUALSTYLE
  5
1269
102
{ACAD_XDICTIONARY
360
12DA
102
}
102
{ACAD_REACTORS
330
1264
102
}
330
1264
100
AcDbVisualStyle
  2
Basic
 70
     7
 71
     1
 72
     0
 73
     1
 90
        0
 40
-0.6
 41
-30.0
 62
     5
 63
     7
421
 16777215
 74
     0
 91
        4
 64
     7
 65
   257
 75
     1
175
     1
 42
1.0
 92
        8
 66
     7
 43
1.0
 76
     1
 77
     6
 78
     2
 67
     7
 79
     5
170
     0
171
     0
290
     0
174
     0
 93
        1
 44
0.0
173
     0
291
     1
 45
0.0
1001
ACAD
1000
AcDbSavedByObjectVersion
1070
     0
  0
VISUALSTYLE
  5
1270
102
{ACAD_XDICTIONARY
360
12E8
102
}
102
{ACAD_REACTORS
330
1264
102
}
330
1264
100
AcDbVisualStyle
  2
Brighten
 70
    12
 71
     2
 72
     2
 73
     0
 90
        0
 40
-0.6
 41
-30.0
 62
     5
 63
     7
421
 16777215
 74
     1
 91
        4
 64
     7
 65
   257
 75
     1
175
     1
 42
1.0
 92
        8
 66
     7
 43
1.0
 76
     1
 77
     6
 78
     2
 67
     7
 79
     5
170
     0
171
     0
290
     0
174
     0
 93
        1
 44
50.0
173
     0
291
     1
 45
0.0
1001
ACAD
1000
AcDbSavedByObjectVersion
1070
     0
  0
VISUALSTYLE
  5
1274
102
{ACAD_XDICTIONARY
360
12F0
102
}
102
{ACAD_REACTORS
330
1264
102
}
330
1264
100
AcDbVisualStyle
  2
ColorChange
 70
    16
 71
     2
 72
     2
 73
     3
 90
        0
 40
-0.6
 41
-30.0
 62
     5
 63
     8
421
  8421504
 74
     1
 91
        4
 64
     7
 65
   257
 75
     1
175
     1
 42
1.0
 92
        8
 66
     8
424
  8421504
 43
1.0
 76
     1
 77
     6
 78
     2
 67
     7
 79
     5
170
     0
171
     0
290
     0
174
     0
 93
        1
 44
0.0
173
     0
291
     1
 45
0.0
1001
ACAD
1000
AcDbSavedByObjectVersion
1070
     0
  0
VISUALSTYLE
  5
126D
102
{ACAD_XDICTIONARY
360
12E2
102
}
102
{ACAD_REACTORS
330
1264
102
}
330
1264
100
AcDbVisualStyle
  2
Conceptual
 70
     9
 71
     3
 72
     2
 73
     0
 90
        0
 40
-0.6
 41
-30.0
 62
     5
 63
     7
421
 16777215
 74
     2
 91
        2
 64
     7
 65
   257
 75
     1
175
     1
 42
179.0
 92
        8
 66
     7
 43
1.0
 76
     1
 77
     6
 78
     2
 67
     7
 79
     3
170
     0
171
     0
290
     0
174
     0
 93
        1
 44
0.0
173
     0
291
     0
 45
0.0
1001
ACAD
1000
AcDbSavedByObjectVersion
1070
     0
  0
VISUALSTYLE
  5
126F
102
{ACAD_XDICTIONARY
360
12E6
102
}
102
{ACAD_REACTORS
330
1264
102
}
330
1264
100
AcDbVisualStyle
  2
Dim
 70
    11
 71
     2
 72
     2
 73
     0
 90
        0
 40
-0.6
 41
-30.0
 62
     5
 63
     7
421
 16777215
 74
     1
 91
        4
 64
     7
 65
   257
 75
     1
175
     1
 42
1.0
 92
        8
 66
     7
 43
1.0
 76
     1
 77
     6
 78
     2
 67
     7
 79
     5
170
     0
171
     0
290
     0
174
     0
 93
        1
 44
-50.0
173
     0
291
     1
 45
0.0
1001
ACAD
1000
AcDbSavedByObjectVersion
1070
     0
  0
VISUALSTYLE
  5
127C
102
{ACAD_XDICTIONARY
360
1300
102
}
102
{ACAD_REACTORS
330
1264
102
}
330
1264
100
AcDbVisualStyle
  2
EdgeColorOff
 70
    22
 71
     2
 72
     2
 73
     0
 90
        0
 40
-0.6
 41
-30.0
 62
     5
 63
     7
421
 16777215
 74
     1
 91
        4
 64
     7
 65
   257
 75
     1
175
     1
 42
1.0
 92
        8
 66
     7
 43
1.0
 76
     1
 77
     6
 78
     2
 67
     7
 79
     5
170
     0
171
     0
290
     0
174
     0
 93
        1
 44
0.0
173
     0
291
     1
 45
0.0
1001
ACAD
1000
AcDbSavedByObjectVersion
1070
     0
  0
VISUALSTYLE
  5
1273
102
{ACAD_XDICTIONARY
360
12EE
102
}
102
{ACAD_REACTORS
330
1264
102
}
330
1264
100
AcDbVisualStyle
  2
Facepattern
 70
    15
 71
     2
 72
     2
 73
     0
 90
        0
 40
-0.6
 41
-30.0
 62
     5
 63
     7
421
 16777215
 74
     1
 91
        4
 64
     7
 65
   257
 75
     1
175
     1
 42
1.0
 92
        8
 66
     7
 43
1.0
 76
     1
 77
     6
 78
     2
 67
     7
 79
     5
170
     0
171
     0
290
     0
174
     0
 93
        1
 44
0.0
173
     0
291
     1
 45
0.0
1001
ACAD
1000
AcDbSavedByObjectVersion
1070
     0
  0
VISUALSTYLE
  5
1265
102
{ACAD_XDICTIONARY
360
12D2
102
}
102
{ACAD_REACTORS
330
1264
102
}
330
1264
100
AcDbVisualStyle
  2
Flat
 70
     0
 71
     2
 72
     1
 73
     1
 90
        2
 40
-0.6
 41
30.0
 62
     5
 63
     7
421
 16777215
 74
     0
 91
        0
 64
     7
 65
   257
 75
     1
175
     1
 42
1.0
 92
        8
 66
     7
 43
1.0
 76
     1
 77
     6
 78
     2
 67
     7
 79
     5
170
     0
171
     0
290
     0
174
     0
 93
       13
 44
0.0
173
     0
291
     1
 45
0.0
1001
ACAD
1000
AcDbSavedByObjectVersion
1070
     0
  0
VISUALSTYLE
  5
1266
102
{ACAD_XDICTIONARY
360
12D4
102
}
102
{ACAD_REACTORS
330
1264
102
}
330
1264
100
AcDbVisualStyle
  2
FlatWithEdges
 70
     1
 71
     2
 72
     1
 73
     1
 90
        2
 40
-0.6
 41
30.0
 62
     5
 63
     7
421
 16777215
 74
     1
 91
        0
 64
     7
 65
   257
 75
     1
175
     1
 42
1.0
 92
        0
 66
   257
 43
1.0
 76
     1
 77
     6
 78
     2
 67
     7
 79
     5
170
     0
171
     0
290
     0
174
     0
 93
       13
 44
0.0
173
     0
291
     1
 45
0.0
1001
ACAD
1000
AcDbSavedByObjectVersion
1070
     0
  0
VISUALSTYLE
  5
1267
102
{ACAD_XDICTIONARY
360
12D6
102
}
102
{ACAD_REACTORS
330
1264
102
}
330
1264
100
AcDbVisualStyle
  2
Gouraud
 70
     2
 71
     2
 72
     2
 73
     1
 90
        2
 40
-0.6
 41
30.0
 62
     5
 63
     7
421
 16777215
 74
     0
 91
        0
 64
     7
 65
   257
 75
     1
175
     1
 42
1.0
 92
        0
 66
     7
 43
1.0
 76
     1
 77
     6
 78
     2
 67
     7
 79
     5
170
     0
171
     0
290
     0
174
     0
 93
       13
 44
0.0
173
     0
291
     1
 45
0.0
1001
ACAD
1000
AcDbSavedByObjectVersion
1070
     0
  0
VISUALSTYLE
  5
1268
102
{ACAD_XDICTIONARY
360
12D8
102
}
102
{ACAD_REACTORS
330
1264
102
}
330
1264
100
AcDbVisualStyle
  2
GouraudWithEdges
 70
     3
 71
     2
 72
     2
 73
     1
 90
        2
 40
-0.6
 41
30.0
 62
     5
 63
     7
421
 16777215
 74
     1
 91
        0
 64
     7
 65
   257
 75
     1
175
     1
 42
1.0
 92
        0
 66
   257
 43
1.0
 76
     1
 77
     6
 78
     2
 67
     7
 79
     5
170
     0
171
     0
290
     0
174
     0
 93
       13
 44
0.0
173
     0
291
     1
 45
0.0
1001
ACAD
1000
AcDbSavedByObjectVersion
1070
     0
  0
VISUALSTYLE
  5
126C
102
{ACAD_XDICTIONARY
360
12E0
102
}
102
{ACAD_REACTORS
330
1264
102
}
330
1264
100
AcDbVisualStyle
  2
Hidden
 70
     6
 71
     1
 72
     2
 73
     2
 90
        0
 40
-0.6
 41
-30.0
 62
     5
 63
     7
421
 16777215
 74
     2
 91
        2
 64
     7
 65
   257
 75
     2
175
     1
 42
40.0
 92
        0
 66
   257
 43
1.0
 76
     1
 77
     6
 78
     2
 67
     7
 79
     3
170
     0
171
     0
290
     0
174
     0
 93
        1
 44
0.0
173
     0
291
     0
 45
0.0
1001
ACAD
1000
AcDbSavedByObjectVersion
1070
     0
  0
VISUALSTYLE
  5
127A
102
{ACAD_XDICTIONARY
360
12FC
102
}
102
{ACAD_REACTORS
330
1264
102
}
330
1264
100
AcDbVisualStyle
  2
JitterOff
 70
    20
 71
     2
 72
     2
 73
     0
 90
        0
 40
-0.6
 41
-30.0
 62
     5
 63
     7
421
 16777215
 74
     1
 91
        4
 64
     7
 65
   257
 75
     1
175
     1
 42
1.0
 92
       10
 66
     7
 43
1.0
 76
     1
 77
     6
 78
     2
 67
     7
 79
     5
170
     0
171
     0
290
     0
174
     0
 93
        1
 44
0.0
173
     0
291
     1
 45
0.0
1001
ACAD
1000
AcDbSavedByObjectVersion
1070
     0
  0
VISUALSTYLE
  5
1272
102
{ACAD_XDICTIONARY
360
12EC
102
}
102
{ACAD_REACTORS
330
1264
102
}
330
1264
100
AcDbVisualStyle
  2
Linepattern
 70
    14
 71
     2
 72
     2
 73
     0
 90
        0
 40
-0.6
 41
-30.0
 62
     5
 63
     7
421
 16777215
 74
     1
 91
        4
 64
     7
 65
   257
 75
     7
175
     7
 42
1.0
 92
        8
 66
     7
 43
1.0
 76
     1
 77
     6
 78
     2
 67
     7
 79
     5
170
     0
171
     0
290
     0
174
     0
 93
        1
 44
0.0
173
     0
291
     1
 45
0.0
1001
ACAD
1000
AcDbSavedByObjectVersion
1070
     0
  0
VISUALSTYLE
  5
127B
102
{ACAD_XDICTIONARY
360
12FE
102
}
102
{ACAD_REACTORS
330
1264
102
}
330
1264
100
AcDbVisualStyle
  2
OverhangOff
 70
    21
 71
     2
 72
     2
 73
     0
 90
        0
 40
-0.6
 41
-30.0
 62
     5
 63
     7
421
 16777215
 74
     1
 91
        4
 64
     7
 65
   257
 75
     1
175
     1
 42
1.0
 92
        9
 66
     7
 43
1.0
 76
     1
 77
     6
 78
     2
 67
     7
 79
     5
170
     0
171
     0
290
     0
174
     0
 93
        1
 44
0.0
173
     0
291
     1
 45
0.0
1001
ACAD
1000
AcDbSavedByObjectVersion
1070
     0
  0
VISUALSTYLE
  5
126E
102
{ACAD_XDICTIONARY
360
12E4
102
}
102
{ACAD_REACTORS
330
1264
102
}
330
1264
100
AcDbVisualStyle
  2
Realistic
 70
     8
 71
     2
 72
     3
 73
     0
 90
        2
 40
-0.6
 41
30.0
 62
     5
 63
     7
421
 16777215
 74
     0
 91
        0
 64
     7
 65
   257
 75
     1
175
     1
 42
1.0
 92
        8
 66
   257
 43
1.0
 76
     1
 77
     6
 78
     2
 67
     7
 79
     3
170
     0
171
     0
290
     0
174
     0
 93
       13
 44
0.0
173
     0
291
     0
 45
0.0
1001
ACAD
1000
AcDbSavedByObjectVersion
1070
     0
  0
VISUALSTYLE
  5
1279
102
{ACAD_XDICTIONARY
360
12FA
102
}
102
{ACAD_REACTORS
330
1264
102
}
330
1264
100
AcDbVisualStyle
  2
Shaded
 70
    27
 71
     2
 72
     2
 73
     1
 90
        2
 40
-0.6
 41
30.0
 62
     5
 63
     7
421
 16777215
 74
     0
 91
        4
 64
     7
 65
   257
 75
     1
175
     1
 42
1.0
 92
        8
 66
   257
 43
1.0
 76
     1
 77
     6
 78
     2
 67
     8
425
  7895160
 79
     3
170
     0
171
     0
290
     0
174
     0
 93
        5
 44
0.0
173
     0
291
     0
 45
0.0
1001
ACAD
1000
AcDbSavedByObjectVersion
1070
     0
  0
VISUALSTYLE
  5
1278
102
{ACAD_XDICTIONARY
360
12F8
102
}
102
{ACAD_REACTORS
330
1264
102
}
330
1264
100
AcDbVisualStyle
  2
Shaded with edges
 70
    26
 71
     2
 72
     2
 73
     1
 90
        2
 40
-0.6
 41
30.0
 62
     5
 63
     7
421
 16777215
 74
     1
 91
       10
 64
     7
 65
   257
 75
     2
175
     1
 42
1.0
 92
        8
 66
   257
 43
1.0
 76
     1
 77
     6
 78
     2
 67
     7
 79
     3
170
     0
171
     0
290
     0
174
     0
 93
        5
 44
0.0
173
     0
291
     0
 45
0.0
1001
ACAD
1000
AcDbSavedByObjectVersion
1070
     0
  0
VISUALSTYLE
  5
1275
102
{ACAD_XDICTIONARY
360
12F2
102
}
102
{ACAD_REACTORS
330
1264
102
}
330
1264
100
AcDbVisualStyle
  2
Shades of Gray
 70
    23
 71
     2
 72
     2
 73
     3
 90
        0
 40
-0.6
 41
-30.0
 62
     5
 63
     7
421
 16777215
 74
     2
 91
        2
 64
     7
 65
     7
 75
     1
175
     1
 42
40.0
 92
        8
 66
     7
 43
1.0
 76
     1
 77
     6
 78
     2
 67
     7
 79
     3
170
     0
171
     0
290
     0
174
     0
 93
        1
 44
0.0
173
     0
291
     0
 45
0.0
1001
ACAD
1000
AcDbSavedByObjectVersion
1070
     0
  0
VISUALSTYLE
  5
1276
102
{ACAD_XDICTIONARY
360
12F4
102
}
102
{ACAD_REACTORS
330
1264
102
}
330
1264
100
AcDbVisualStyle
  2
Sketchy
 70
    24
 71
     1
 72
     2
 73
     2
 90
        0
 40
-0.6
 41
-30.0
 62
     5
 63
     7
421
 16777215
 74
     2
 91
        2
 64
     7
 65
     7
 75
     1
175
     1
 42
40.0
 92
       11
 66
     7
 43
1.0
 76
     1
 77
     6
 78
     2
 67
     7
 79
     6
170
     0
171
     0
290
     0
174
     0
 93
        1
 44
0.0
173
     0
291
     0
 45
0.0
1001
ACAD
1000
AcDbSavedByObjectVersion
1070
     0
  0
VISUALSTYLE
  5
1271
102
{ACAD_XDICTIONARY
360
12EA
102
}
102
{ACAD_REACTORS
330
1264
102
}
330
1264
100
AcDbVisualStyle
  2
Thicken
 70
    13
 71
     2
 72
     2
 73
     0
 90
        0
 40
-0.6
 41
-30.0
 62
     5
 63
     7
421
 16777215
 74
     1
 91
        4
 64
     7
 65
   257
 75
     1
175
     1
 42
1.0
 92
       12
 66
     7
 43
1.0
 76
     1
 77
     6
 78
     2
 67
     7
 79
     5
170
     0
171
     0
290
     0
174
     0
 93
        1
 44
0.0
173
     0
291
     1
 45
0.0
1001
ACAD
1000
AcDbSavedByObjectVersion
1070
     0
  0
VISUALSTYLE
  5
126B
102
{ACAD_XDICTIONARY
360
12DE
102
}
102
{ACAD_REACTORS
330
1264
102
}
330
1264
100
AcDbVisualStyle
  2
Wireframe
 70
     5
 71
     0
 72
     2
 73
     0
 90
        0
 40
-0.6
 41
-30.0
 62
     5
 63
     7
421
 16777215
 74
     1
 91
        4
 64
     7
 65
   257
 75
     1
175
     1
 42
1.0
 92
        0
 66
   257
 43
1.0
 76
     1
 77
     6
 78
     2
 67
     7
 79
     3
170
     0
171
     0
290
     0
174
     0
 93
        1
 44
0.0
173
     0
291
     0
 45
0.0
1001
ACAD
1000
AcDbSavedByObjectVersion
1070
     0
  0
VISUALSTYLE
  5
1277
102
{ACAD_XDICTIONARY
360
12F6
102
}
102
{ACAD_REACTORS
330
1264
102
}
330
1264
100
AcDbVisualStyle
  2
X-Ray
 70
    25
 71
     2
 72
     2
 73
     1
 90
        1
 40
0.5
 41
-30.0
 62
     5
 63
     7
421
 16777215
 74
     1
 91
        0
 64
     7
 65
   257
 75
     1
175
     1
 42
1.0
 92
        8
 66
     7
 43
1.0
 76
     1
 77
     6
 78
     2
 67
     7
 79
     3
170
     0
171
     0
290
     0
174
     0
 93
       13
 44
0.0
173
     0
291
     0
 45
0.0
1001
ACAD
1000
AcDbSavedByObjectVersion
1070
     0
  0
DICTIONARYVAR
  5
12CA
102
{ACAD_REACTORS
330
5E
102
}
330
5E
100
DictionaryVariables
280
     0
  1
1:1
  0
DICTIONARYVAR
  5
12C8
102
{ACAD_REACTORS
330
5E
102
}
330
5E
100
DictionaryVariables
280
     0
  1
STANDARD
  0
DICTIONARYVAR
  5
12C7
102
{ACAD_REACTORS
330
5E
102
}
330
5E
100
DictionaryVariables
280
     0
  1
STANDARD
  0
DICTIONARYVAR
  5
5F
102
{ACAD_REACTORS
330
5E
102
}
330
5E
100
DictionaryVariables
280
     0
  1
2
  0
DICTIONARYVAR
  5
63
102
{ACAD_REACTORS
330
5E
102
}
330
5E
100
DictionaryVariables
280
     0
  1
1
  0
DICTIONARYVAR
  5
12CC
102
{ACAD_REACTORS
330
5E
102
}
330
5E
100
DictionaryVariables
280
     0
  1
1
  0
DICTIONARYVAR
  5
12CD
102
{ACAD_REACTORS
330
5E
102
}
330
5E
100
DictionaryVariables
280
     0
  1
15
  0
DICTIONARYVAR
  5
12CB
102
{ACAD_REACTORS
330
5E
102
}
330
5E
100
DictionaryVariables
280
     0
  1
0
  0
DICTIONARYVAR
  5
12C9
102
{ACAD_REACTORS
330
5E
102
}
330
5E
100
DictionaryVariables
280
     0
  1
0
  0
DICTIONARYVAR
  5
1217
102
{ACAD_REACTORS
330
5E
102
}
330
5E
100
DictionaryVariables
280
     0
  1

  0
DICTIONARYVAR
  5
12CE
102
{ACAD_REACTORS
330
5E
102
}
330
5E
100
DictionaryVariables
280
     0
  1
2
  0
DICTIONARY
  5
1255
330
1254
100
AcDbDictionary
280
     1
281
     1
  3
BUMPTILE
360
1257
  3
DIFFUSETILE
360
1256
  3
OPACITYTILE
360
125A
  3
REFLECTIONTILE
360
1259
  3
REFRACTIONTILE
360
125B
  3
SPECULARTILE
360
1258
  0
DICTIONARY
  5
124D
330
124C
100
AcDbDictionary
280
     1
281
     1
  3
BUMPTILE
360
124F
  3
DIFFUSETILE
360
124E
  3
OPACITYTILE
360
1252
  3
REFLECTIONTILE
360
1251
  3
REFRACTIONTILE
360
1253
  3
SPECULARTILE
360
1250
  0
DICTIONARY
  5
125D
330
125C
100
AcDbDictionary
280
     1
281
     1
  3
BUMPTILE
360
125F
  3
DIFFUSETILE
360
125E
  3
OPACITYTILE
360
1262
  3
REFLECTIONTILE
360
1261
  3
REFRACTIONTILE
360
1263
  3
SPECULARTILE
360
1260
  0
DICTIONARY
  5
12CF
330
127E
100
AcDbDictionary
280
     1
281
     1
  3
ACAD_ROUNDTRIP_2008_TABLESTYLE_CELLSTYLEMAP
360
12D0
  0
DICTIONARY
  5
12DC
330
126A
100
AcDbDictionary
280
     1
281
     1
  3
ACAD_XREC_ROUNDTRIP
360
12DD
  0
DICTIONARY
  5
12DA
330
1269
100
AcDbDictionary
280
     1
281
     1
  3
ACAD_XREC_ROUNDTRIP
360
12DB
  0
DICTIONARY
  5
12E8
330
1270
100
AcDbDictionary
280
     1
281
     1
  3
ACAD_XREC_ROUNDTRIP
360
12E9
  0
DICTIONARY
  5
12F0
330
1274
100
AcDbDictionary
280
     1
281
     1
  3
ACAD_XREC_ROUNDTRIP
360
12F1
  0
DICTIONARY
  5
12E2
330
126D
100
AcDbDictionary
280
     1
281
     1
  3
ACAD_XREC_ROUNDTRIP
360
12E3
  0
DICTIONARY
  5
12E6
330
126F
100
AcDbDictionary
280
     1
281
     1
  3
ACAD_XREC_ROUNDTRIP
360
12E7
  0
DICTIONARY
  5
1300
330
127C
100
AcDbDictionary
280
     1
281
     1
  3
ACAD_XREC_ROUNDTRIP
360
1301
  0
DICTIONARY
  5
12EE
330
1273
100
AcDbDictionary
280
     1
281
     1
  3
ACAD_XREC_ROUNDTRIP
360
12EF
  0
DICTIONARY
  5
12D2
330
1265
100
AcDbDictionary
280
     1
281
     1
  3
ACAD_XREC_ROUNDTRIP
360
12D3
  0
DICTIONARY
  5
12D4
330
1266
100
AcDbDictionary
280
     1
281
     1
  3
ACAD_XREC_ROUNDTRIP
360
12D5
  0
DICTIONARY
  5
12D6
330
1267
100
AcDbDictionary
280
     1
281
     1
  3
ACAD_XREC_ROUNDTRIP
360
12D7
  0
DICTIONARY
  5
12D8
330
1268
100
AcDbDictionary
280
     1
281
     1
  3
ACAD_XREC_ROUNDTRIP
360
12D9
  0
DICTIONARY
  5
12E0
330
126C
100
AcDbDictionary
280
     1
281
     1
  3
ACAD_XREC_ROUNDTRIP
360
12E1
  0
DICTIONARY
  5
12FC
330
127A
100
AcDbDictionary
280
     1
281
     1
  3
ACAD_XREC_ROUNDTRIP
360
12FD
  0
DICTIONARY
  5
12EC
330
1272
100
AcDbDictionary
280
     1
281
     1
  3
ACAD_XREC_ROUNDTRIP
360
12ED
  0
DICTIONARY
  5
12FE
330
127B
100
AcDbDictionary
280
     1
281
     1
  3
ACAD_XREC_ROUNDTRIP
360
12FF
  0
DICTIONARY
  5
12E4
330
126E
100
AcDbDictionary
280
     1
281
     1
  3
ACAD_XREC_ROUNDTRIP
360
12E5
  0
DICTIONARY
  5
12FA
330
1279
100
AcDbDictionary
280
     1
281
     1
  3
ACAD_XREC_ROUNDTRIP
360
12FB
  0
DICTIONARY
  5
12F8
330
1278
100
AcDbDictionary
280
     1
281
     1
  3
ACAD_XREC_ROUNDTRIP
360
12F9
  0
DICTIONARY
  5
12F2
330
1275
100
AcDbDictionary
280
     1
281
     1
  3
ACAD_XREC_ROUNDTRIP
360
12F3
  0
DICTIONARY
  5
12F4
330
1276
100
AcDbDictionary
280
     1
281
     1
  3
ACAD_XREC_ROUNDTRIP
360
12F5
  0
DICTIONARY
  5
12EA
330
1271
100
AcDbDictionary
280
     1
281
     1
  3
ACAD_XREC_ROUNDTRIP
360
12EB
  0
DICTIONARY
  5
12DE
330
126B
100
AcDbDictionary
280
     1
281
     1
  3
ACAD_XREC_ROUNDTRIP
360
12DF
  0
DICTIONARY
  5
12F6
330
1277
100
AcDbDictionary
280
     1
281
     1
  3
ACAD_XREC_ROUNDTRIP
360
12F7
  0
XRECORD
  5
1257
102
{ACAD_REACTORS
330
1255
102
}
330
1255
100
AcDbXrecord
280
     1
270
     1
271
     1
  0
XRECORD
  5
1256
102
{ACAD_REACTORS
330
1255
102
}
330
1255
100
AcDbXrecord
280
     1
270
     1
271
     1
  0
XRECORD
  5
125A
102
{ACAD_REACTORS
330
1255
102
}
330
1255
100
AcDbXrecord
280
     1
270
     1
271
     1
  0
XRECORD
  5
1259
102
{ACAD_REACTORS
330
1255
102
}
330
1255
100
AcDbXrecord
280
     1
270
     1
271
     1
  0
XRECORD
  5
125B
102
{ACAD_REACTORS
330
1255
102
}
330
1255
100
AcDbXrecord
280
     1
270
     1
271
     1
  0
XRECORD
  5
1258
102
{ACAD_REACTORS
330
1255
102
}
330
1255
100
AcDbXrecord
280
     1
270
     1
271
     1
  0
XRECORD
  5
124F
102
{ACAD_REACTORS
330
124D
102
}
330
124D
100
AcDbXrecord
280
     1
270
     1
271
     1
  0
XRECORD
  5
124E
102
{ACAD_REACTORS
330
124D
102
}
330
124D
100
AcDbXrecord
280
     1
270
     1
271
     1
  0
XRECORD
  5
1252
102
{ACAD_REACTORS
330
124D
102
}
330
124D
100
AcDbXrecord
280
     1
270
     1
271
     1
  0
XRECORD
  5
1251
102
{ACAD_REACTORS
330
124D
102
}
330
124D
100
AcDbXrecord
280
     1
270
     1
271
     1
  0
XRECORD
  5
1253
102
{ACAD_REACTORS
330
124D
102
}
330
124D
100
AcDbXrecord
280
     1
270
     1
271
     1
  0
XRECORD
  5
1250
102
{ACAD_REACTORS
330
124D
102
}
330
124D
100
AcDbXrecord
280
     1
270
     1
271
     1
  0
XRECORD
  5
125F
102
{ACAD_REACTORS
330
125D
102
}
330
125D
100
AcDbXrecord
280
     1
270
     1
271
     1
  0
XRECORD
  5
125E
102
{ACAD_REACTORS
330
125D
102
}
330
125D
100
AcDbXrecord
280
     1
270
     1
271
     1
  0
XRECORD
  5
1262
102
{ACAD_REACTORS
330
125D
102
}
330
125D
100
AcDbXrecord
280
     1
270
     1
271
     1
  0
XRECORD
  5
1261
102
{ACAD_REACTORS
330
125D
102
}
330
125D
100
AcDbXrecord
280
     1
270
     1
271
     1
  0
XRECORD
  5
1263
102
{ACAD_REACTORS
330
125D
102
}
330
125D
100
AcDbXrecord
280
     1
270
     1
271
     1
  0
XRECORD
  5
1260
102
{ACAD_REACTORS
330
125D
102
}
330
125D
100
AcDbXrecord
280
     1
270
     1
271
     1
  0
CELLSTYLEMAP
  5
12D0
102
{ACAD_REACTORS
330
12CF
102
}
330
12CF
100
AcDbCellStyleMap
 90
        3
300
CELLSTYLE
  1
TABLEFORMAT_BEGIN
 90
        5
170
     1
 91
        0
 92
    32768
 62
   257
 93
        1
300
CONTENTFORMAT
  1
CONTENTFORMAT_BEGIN
 90
        0
 91
        0
 92
      512
 93
        0
300

 40
0.0
140
1.0
 94
        5
 62
     0
340
11
144
6.0
309
CONTENTFORMAT_END
171
     1
301
MARGIN
  1
CELLMARGIN_BEGIN
 40
1.5
 40
1.5
 40
1.5
 40
1.5
 40
4.5
 40
4.5
309
CELLMARGIN_END
 94
        6
 95
        1
302
GRIDFORMAT
  1
GRIDFORMAT_BEGIN
 90
        0
 91
        1
 62
     0
 92
       -2
340
0
 93
        0
 40
1.125
309
GRIDFORMAT_END
 95
        2
302
GRIDFORMAT
  1
GRIDFORMAT_BEGIN
 90
        0
 91
        1
 62
     0
 92
       -2
340
0
 93
        0
 40
1.125
309
GRIDFORMAT_END
 95
        4
302
GRIDFORMAT
  1
GRIDFORMAT_BEGIN
 90
        0
 91
        1
 62
     0
 92
       -2
340
0
 93
        0
 40
1.125
309
GRIDFORMAT_END
 95
        8
302
GRIDFORMAT
  1
GRIDFORMAT_BEGIN
 90
        0
 91
        1
 62
     0
 92
       -2
340
0
 93
        0
 40
1.125
309
GRIDFORMAT_END
 95
       16
302
GRIDFORMAT
  1
GRIDFORMAT_BEGIN
 90
        0
 91
        1
 62
     0
 92
       -2
340
0
 93
        0
 40
1.125
309
GRIDFORMAT_END
 95
       32
302
GRIDFORMAT
  1
GRIDFORMAT_BEGIN
 90
        0
 91
        1
 62
     0
 92
       -2
340
0
 93
        0
 40
1.125
309
GRIDFORMAT_END
309
TABLEFORMAT_END
  1
CELLSTYLE_BEGIN
 90
        1
 91
        1
300
_TITLE
309
CELLSTYLE_END
300
CELLSTYLE
  1
TABLEFORMAT_BEGIN
 90
        5
170
     1
 91
        0
 92
        0
 62
   257
 93
        1
300
CONTENTFORMAT
  1
CONTENTFORMAT_BEGIN
 90
        0
 91
        0
 92
      512
 93
        0
300

 40
0.0
140
1.0
 94
        5
 62
     0
340
11
144
4.5
309
CONTENTFORMAT_END
171
     1
301
MARGIN
  1
CELLMARGIN_BEGIN
 40
1.5
 40
1.5
 40
1.5
 40
1.5
 40
4.5
 40
4.5
309
CELLMARGIN_END
 94
        6
 95
        1
302
GRIDFORMAT
  1
GRIDFORMAT_BEGIN
 90
        0
 91
        1
 62
     0
 92
       -2
340
0
 93
        0
 40
1.125
309
GRIDFORMAT_END
 95
        2
302
GRIDFORMAT
  1
GRIDFORMAT_BEGIN
 90
        0
 91
        1
 62
     0
 92
       -2
340
0
 93
        0
 40
1.125
309
GRIDFORMAT_END
 95
        4
302
GRIDFORMAT
  1
GRIDFORMAT_BEGIN
 90
        0
 91
        1
 62
     0
 92
       -2
340
0
 93
        0
 40
1.125
309
GRIDFORMAT_END
 95
        8
302
GRIDFORMAT
  1
GRIDFORMAT_BEGIN
 90
        0
 91
        1
 62
     0
 92
       -2
340
0
 93
        0
 40
1.125
309
GRIDFORMAT_END
 95
       16
302
GRIDFORMAT
  1
GRIDFORMAT_BEGIN
 90
        0
 91
        1
 62
     0
 92
       -2
340
0
 93
        0
 40
1.125
309
GRIDFORMAT_END
 95
       32
302
GRIDFORMAT
  1
GRIDFORMAT_BEGIN
 90
        0
 91
        1
 62
     0
 92
       -2
340
0
 93
        0
 40
1.125
309
GRIDFORMAT_END
309
TABLEFORMAT_END
  1
CELLSTYLE_BEGIN
 90
        2
 91
        1
300
_HEADER
309
CELLSTYLE_END
300
CELLSTYLE
  1
TABLEFORMAT_BEGIN
 90
        5
170
     1
 91
        0
 92
        0
 62
   257
 93
        1
300
CONTENTFORMAT
  1
CONTENTFORMAT_BEGIN
 90
        0
 91
        0
 92
      512
 93
        0
300

 40
0.0
140
1.0
 94
        2
 62
     0
340
11
144
4.5
309
CONTENTFORMAT_END
171
     1
301
MARGIN
  1
CELLMARGIN_BEGIN
 40
1.5
 40
1.5
 40
1.5
 40
1.5
 40
4.5
 40
4.5
309
CELLMARGIN_END
 94
        6
 95
        1
302
GRIDFORMAT
  1
GRIDFORMAT_BEGIN
 90
        0
 91
        1
 62
     0
 92
       -2
340
0
 93
        0
 40
1.125
309
GRIDFORMAT_END
 95
        2
302
GRIDFORMAT
  1
GRIDFORMAT_BEGIN
 90
        0
 91
        1
 62
     0
 92
       -2
340
0
 93
        0
 40
1.125
309
GRIDFORMAT_END
 95
        4
302
GRIDFORMAT
  1
GRIDFORMAT_BEGIN
 90
        0
 91
        1
 62
     0
 92
       -2
340
0
 93
        0
 40
1.125
309
GRIDFORMAT_END
 95
        8
302
GRIDFORMAT
  1
GRIDFORMAT_BEGIN
 90
        0
 91
        1
 62
     0
 92
       -2
340
0
 93
        0
 40
1.125
309
GRIDFORMAT_END
 95
       16
302
GRIDFORMAT
  1
GRIDFORMAT_BEGIN
 90
        0
 91
        1
 62
     0
 92
       -2
340
0
 93
        0
 40
1.125
309
GRIDFORMAT_END
 95
       32
302
GRIDFORMAT
  1
GRIDFORMAT_BEGIN
 90
        0
 91
        1
 62
     0
 92
       -2
340
0
 93
        0
 40
1.125
309
GRIDFORMAT_END
309
TABLEFORMAT_END
  1
CELLSTYLE_BEGIN
 90
        3
 91
        2
300
_DATA
309
CELLSTYLE_END
  0
XRECORD
  5
12DD
102
{ACAD_REACTORS
330
12DC
102
}
330
12DC
100
AcDbXrecord
280
     1
102
RTVSPropertyOp0
 70
     1
102
RTVSPropertyOp1
 70
     1
102
RTVSPropertyOp2
 70
     1
102
RTVSPropertyOp3
 70
     1
102
RTVSPropertyOp4
 70
     1
102
RTVSPropertyOp5
 70
     1
102
RTVSPropertyOp6
 70
     1
102
RTVSPropertyOp7
 70
     1
102
RTVSPropertyOp8
 70
     1
102
RTVSPropertyOp9
 70
     1
102
RTVSPropertyOp10
 70
     1
102
RTVSPropertyOp11
 70
     1
102
RTVSPropertyOp12
 70
     1
102
RTVSPropertyOp13
 70
     1
102
RTVSPropertyOp14
 70
     1
102
RTVSPropertyOp15
 70
     1
102
RTVSPropertyOp16
 70
     1
102
RTVSPropertyOp17
 70
     1
102
RTVSPropertyOp18
 70
     1
102
RTVSPropertyOp19
 70
     1
102
RTVSPropertyOp20
 70
     1
102
RTVSPropertyOp21
 70
     1
102
RTVSPropertyOp22
 70
     1
102
RTVSPropertyOp23
 70
     1
102
RTVSPropertyOp24
 70
     1
102
RTVSPropertyOp25
 70
     1
102
RTVSPropertyOp26
 70
     1
102
RTVSPropertyOp27
 70
     1
102
RTVSPropertyOp28
 70
     1
102
RTVSPropertyOp29
 70
     1
102
RTVSPropertyOp30
 70
     1
102
RTVSPropertyOp31
 70
     1
102
RTVSPropertyOp32
 70
     1
  0
XRECORD
  5
12DB
102
{ACAD_REACTORS
330
12DA
102
}
330
12DA
100
AcDbXrecord
280
     1
102
RTVSPropertyOp0
 70
     1
102
RTVSPropertyOp1
 70
     1
102
RTVSPropertyOp2
 70
     1
102
RTVSPropertyOp3
 70
     1
102
RTVSPropertyOp4
 70
     1
102
RTVSPropertyOp5
 70
     1
102
RTVSPropertyOp6
 70
     1
102
RTVSPropertyOp7
 70
     1
102
RTVSPropertyOp8
 70
     1
102
RTVSPropertyOp9
 70
     1
102
RTVSPropertyOp10
 70
     1
102
RTVSPropertyOp11
 70
     1
102
RTVSPropertyOp12
 70
     1
102
RTVSPropertyOp13
 70
     1
102
RTVSPropertyOp14
 70
     1
102
RTVSPropertyOp15
 70
     1
102
RTVSPropertyOp16
 70
     1
102
RTVSPropertyOp17
 70
     1
102
RTVSPropertyOp18
 70
     1
102
RTVSPropertyOp19
 70
     1
102
RTVSPropertyOp20
 70
     1
102
RTVSPropertyOp21
 70
     1
102
RTVSPropertyOp22
 70
     1
102
RTVSPropertyOp23
 70
     1
102
RTVSPropertyOp24
 70
     1
102
RTVSPropertyOp25
 70
     1
102
RTVSPropertyOp26
 70
     1
102
RTVSPropertyOp27
 70
     1
102
RTVSPropertyOp28
 70
     1
102
RTVSPropertyOp29
 70
     1
102
RTVSPropertyOp30
 70
     1
102
RTVSPropertyOp31
 70
     1
102
RTVSPropertyOp32
 70
     1
  0
XRECORD
  5
12E9
102
{ACAD_REACTORS
330
12E8
102
}
330
12E8
100
AcDbXrecord
280
     1
102
RTVSPropertyOp0
 70
     1
102
RTVSPropertyOp1
 70
     1
102
RTVSPropertyOp2
 70
     1
102
RTVSPropertyOp3
 70
     1
102
RTVSPropertyOp4
 70
     1
102
RTVSPropertyOp5
 70
     1
102
RTVSPropertyOp6
 70
     1
102
RTVSPropertyOp7
 70
     1
102
RTVSPropertyOp8
 70
     1
102
RTVSPropertyOp9
 70
     1
102
RTVSPropertyOp10
 70
     1
102
RTVSPropertyOp11
 70
     1
102
RTVSPropertyOp12
 70
     1
102
RTVSPropertyOp13
 70
     1
102
RTVSPropertyOp14
 70
     1
102
RTVSPropertyOp15
 70
     1
102
RTVSPropertyOp16
 70
     1
102
RTVSPropertyOp17
 70
     1
102
RTVSPropertyOp18
 70
     1
102
RTVSPropertyOp19
 70
     1
102
RTVSPropertyOp20
 70
     1
102
RTVSPropertyOp21
 70
     1
102
RTVSPropertyOp22
 70
     1
102
RTVSPropertyOp23
 70
     1
102
RTVSPropertyOp24
 70
     1
102
RTVSPropertyOp25
 70
     1
102
RTVSPropertyOp26
 70
     1
102
RTVSPropertyOp27
 70
     1
102
RTVSPropertyOp28
 70
     1
102
RTVSPropertyOp29
 70
     1
102
RTVSPropertyOp30
 70
     1
102
RTVSPropertyOp31
 70
     1
102
RTVSPropertyOp32
 70
     1
  0
XRECORD
  5
12F1
102
{ACAD_REACTORS
330
12F0
102
}
330
12F0
100
AcDbXrecord
280
     1
102
RTVSPropertyOp0
 70
     1
102
RTVSPropertyOp1
 70
     1
102
RTVSPropertyOp2
 70
     1
102
RTVSPropertyOp3
 70
     1
102
RTVSPropertyOp4
 70
     1
102
RTVSPropertyOp5
 70
     1
102
RTVSPropertyOp6
 70
     1
102
RTVSPropertyOp7
 70
     1
102
RTVSPropertyOp8
 70
     1
102
RTVSPropertyOp9
 70
     1
102
RTVSPropertyOp10
 70
     1
102
RTVSPropertyOp11
 70
     1
102
RTVSPropertyOp12
 70
     1
102
RTVSPropertyOp13
 70
     1
102
RTVSPropertyOp14
 70
     1
102
RTVSPropertyOp15
 70
     1
102
RTVSPropertyOp16
 70
     1
102
RTVSPropertyOp17
 70
     1
102
RTVSPropertyOp18
 70
     1
102
RTVSPropertyOp19
 70
     1
102
RTVSPropertyOp20
 70
     1
102
RTVSPropertyOp21
 70
     1
102
RTVSPropertyOp22
 70
     1
102
RTVSPropertyOp23
 70
     1
102
RTVSPropertyOp24
 70
     1
102
RTVSPropertyOp25
 70
     1
102
RTVSPropertyOp26
 70
     1
102
RTVSPropertyOp27
 70
     1
102
RTVSPropertyOp28
 70
     1
102
RTVSPropertyOp29
 70
     1
102
RTVSPropertyOp30
 70
     1
102
RTVSPropertyOp31
 70
     1
102
RTVSPropertyOp32
 70
     1
  0
XRECORD
  5
12E3
102
{ACAD_REACTORS
330
12E2
102
}
330
12E2
100
AcDbXrecord
280
     1
102
RTVSPropertyOp0
 70
     1
102
RTVSPropertyOp1
 70
     1
102
RTVSPropertyOp2
 70
     1
102
RTVSPropertyOp3
 70
     1
102
RTVSPropertyOp4
 70
     1
102
RTVSPropertyOp5
 70
     1
102
RTVSPropertyOp6
 70
     1
102
RTVSPropertyOp7
 70
     1
102
RTVSPropertyOp8
 70
     1
102
RTVSPropertyOp9
 70
     1
102
RTVSPropertyOp10
 70
     1
102
RTVSPropertyOp11
 70
     1
102
RTVSPropertyOp12
 70
     1
102
RTVSPropertyOp13
 70
     1
102
RTVSPropertyOp14
 70
     1
102
RTVSPropertyOp15
 70
     1
102
RTVSPropertyOp16
 70
     1
102
RTVSPropertyOp17
 70
     1
102
RTVSPropertyOp18
 70
     1
102
RTVSPropertyOp19
 70
     1
102
RTVSPropertyOp20
 70
     1
102
RTVSPropertyOp21
 70
     1
102
RTVSPropertyOp22
 70
     1
102
RTVSPropertyOp23
 70
     1
102
RTVSPropertyOp24
 70
     1
102
RTVSPropertyOp25
 70
     1
102
RTVSPropertyOp26
 70
     1
102
RTVSPropertyOp27
 70
     1
102
RTVSPropertyOp28
 70
     1
102
RTVSPropertyOp29
 70
     1
102
RTVSPropertyOp30
 70
     1
102
RTVSPropertyOp31
 70
     1
102
RTVSPropertyOp32
 70
     1
  0
XRECORD
  5
12E7
102
{ACAD_REACTORS
330
12E6
102
}
330
12E6
100
AcDbXrecord
280
     1
102
RTVSPropertyOp0
 70
     1
102
RTVSPropertyOp1
 70
     1
102
RTVSPropertyOp2
 70
     1
102
RTVSPropertyOp3
 70
     1
102
RTVSPropertyOp4
 70
     1
102
RTVSPropertyOp5
 70
     1
102
RTVSPropertyOp6
 70
     1
102
RTVSPropertyOp7
 70
     1
102
RTVSPropertyOp8
 70
     1
102
RTVSPropertyOp9
 70
     1
102
RTVSPropertyOp10
 70
     1
102
RTVSPropertyOp11
 70
     1
102
RTVSPropertyOp12
 70
     1
102
RTVSPropertyOp13
 70
     1
102
RTVSPropertyOp14
 70
     1
102
RTVSPropertyOp15
 70
     1
102
RTVSPropertyOp16
 70
     1
102
RTVSPropertyOp17
 70
     1
102
RTVSPropertyOp18
 70
     1
102
RTVSPropertyOp19
 70
     1
102
RTVSPropertyOp20
 70
     1
102
RTVSPropertyOp21
 70
     1
102
RTVSPropertyOp22
 70
     1
102
RTVSPropertyOp23
 70
     1
102
RTVSPropertyOp24
 70
     1
102
RTVSPropertyOp25
 70
     1
102
RTVSPropertyOp26
 70
     1
102
RTVSPropertyOp27
 70
     1
102
RTVSPropertyOp28
 70
     1
102
RTVSPropertyOp29
 70
     1
102
RTVSPropertyOp30
 70
     1
102
RTVSPropertyOp31
 70
     1
102
RTVSPropertyOp32
 70
     1
  0
XRECORD
  5
1301
102
{ACAD_REACTORS
330
1300
102
}
330
1300
100
AcDbXrecord
280
     1
102
RTVSPropertyOp0
 70
     0
102
RTVSPropertyOp1
 70
     0
102
RTVSPropertyOp2
 70
     0
102
RTVSPropertyOp3
 70
     0
102
RTVSPropertyOp4
 70
     0
102
RTVSPropertyOp5
 70
     0
102
RTVSPropertyOp6
 70
     0
102
RTVSPropertyOp7
 70
     0
102
RTVSPropertyOp8
 70
     0
102
RTVSPropertyOp9
 70
     0
102
RTVSPropertyOp10
 70
     0
102
RTVSPropertyOp11
 70
     0
102
RTVSPropertyOp12
 70
     0
102
RTVSPropertyOp13
 70
     0
102
RTVSPropertyOp14
 70
     2
102
RTVSPropertyOp15
 70
     0
102
RTVSPropertyOp16
 70
     0
102
RTVSPropertyOp17
 70
     0
102
RTVSPropertyOp18
 70
     0
102
RTVSPropertyOp19
 70
     0
102
RTVSPropertyOp20
 70
     0
102
RTVSPropertyOp21
 70
     0
102
RTVSPropertyOp22
 70
     0
102
RTVSPropertyOp23
 70
     0
102
RTVSPropertyOp24
 70
     0
102
RTVSPropertyOp25
 70
     0
102
RTVSPropertyOp26
 70
     0
102
RTVSPropertyOp27
 70
     0
102
RTVSPropertyOp28
 70
     0
102
RTVSPropertyOp29
 70
     0
102
RTVSPropertyOp30
 70
     0
102
RTVSPropertyOp31
 70
     0
102
RTVSPropertyOp32
 70
     0
  0
XRECORD
  5
12EF
102
{ACAD_REACTORS
330
12EE
102
}
330
12EE
100
AcDbXrecord
280
     1
102
RTVSPropertyOp0
 70
     1
102
RTVSPropertyOp1
 70
     1
102
RTVSPropertyOp2
 70
     1
102
RTVSPropertyOp3
 70
     1
102
RTVSPropertyOp4
 70
     1
102
RTVSPropertyOp5
 70
     1
102
RTVSPropertyOp6
 70
     1
102
RTVSPropertyOp7
 70
     1
102
RTVSPropertyOp8
 70
     1
102
RTVSPropertyOp9
 70
     1
102
RTVSPropertyOp10
 70
     1
102
RTVSPropertyOp11
 70
     1
102
RTVSPropertyOp12
 70
     1
102
RTVSPropertyOp13
 70
     1
102
RTVSPropertyOp14
 70
     1
102
RTVSPropertyOp15
 70
     1
102
RTVSPropertyOp16
 70
     1
102
RTVSPropertyOp17
 70
     1
102
RTVSPropertyOp18
 70
     1
102
RTVSPropertyOp19
 70
     1
102
RTVSPropertyOp20
 70
     1
102
RTVSPropertyOp21
 70
     1
102
RTVSPropertyOp22
 70
     1
102
RTVSPropertyOp23
 70
     1
102
RTVSPropertyOp24
 70
     1
102
RTVSPropertyOp25
 70
     1
102
RTVSPropertyOp26
 70
     1
102
RTVSPropertyOp27
 70
     1
102
RTVSPropertyOp28
 70
     1
102
RTVSPropertyOp29
 70
     1
102
RTVSPropertyOp30
 70
     1
102
RTVSPropertyOp31
 70
     1
102
RTVSPropertyOp32
 70
     1
  0
XRECORD
  5
12D3
102
{ACAD_REACTORS
330
12D2
102
}
330
12D2
100
AcDbXrecord
280
     1
102
RTVSPropertyOp0
 70
     1
102
RTVSPropertyOp1
 70
     1
102
RTVSPropertyOp2
 70
     1
102
RTVSPropertyOp3
 70
     1
102
RTVSPropertyOp4
 70
     1
102
RTVSPropertyOp5
 70
     1
102
RTVSPropertyOp6
 70
     1
102
RTVSPropertyOp7
 70
     1
102
RTVSPropertyOp8
 70
     1
102
RTVSPropertyOp9
 70
     1
102
RTVSPropertyOp10
 70
     1
102
RTVSPropertyOp11
 70
     1
102
RTVSPropertyOp12
 70
     1
102
RTVSPropertyOp13
 70
     1
102
RTVSPropertyOp14
 70
     1
102
RTVSPropertyOp15
 70
     1
102
RTVSPropertyOp16
 70
     1
102
RTVSPropertyOp17
 70
     1
102
RTVSPropertyOp18
 70
     1
102
RTVSPropertyOp19
 70
     1
102
RTVSPropertyOp20
 70
     1
102
RTVSPropertyOp21
 70
     1
102
RTVSPropertyOp22
 70
     1
102
RTVSPropertyOp23
 70
     1
102
RTVSPropertyOp24
 70
     1
102
RTVSPropertyOp25
 70
     1
102
RTVSPropertyOp26
 70
     1
102
RTVSPropertyOp27
 70
     1
102
RTVSPropertyOp28
 70
     1
102
RTVSPropertyOp29
 70
     1
102
RTVSPropertyOp30
 70
     1
102
RTVSPropertyOp31
 70
     1
102
RTVSPropertyOp32
 70
     1
  0
XRECORD
  5
12D5
102
{ACAD_REACTORS
330
12D4
102
}
330
12D4
100
AcDbXrecord
280
     1
102
RTVSPropertyOp0
 70
     1
102
RTVSPropertyOp1
 70
     1
102
RTVSPropertyOp2
 70
     1
102
RTVSPropertyOp3
 70
     1
102
RTVSPropertyOp4
 70
     1
102
RTVSPropertyOp5
 70
     1
102
RTVSPropertyOp6
 70
     1
102
RTVSPropertyOp7
 70
     1
102
RTVSPropertyOp8
 70
     1
102
RTVSPropertyOp9
 70
     1
102
RTVSPropertyOp10
 70
     1
102
RTVSPropertyOp11
 70
     1
102
RTVSPropertyOp12
 70
     1
102
RTVSPropertyOp13
 70
     1
102
RTVSPropertyOp14
 70
     1
102
RTVSPropertyOp15
 70
     1
102
RTVSPropertyOp16
 70
     1
102
RTVSPropertyOp17
 70
     1
102
RTVSPropertyOp18
 70
     1
102
RTVSPropertyOp19
 70
     1
102
RTVSPropertyOp20
 70
     1
102
RTVSPropertyOp21
 70
     1
102
RTVSPropertyOp22
 70
     1
102
RTVSPropertyOp23
 70
     1
102
RTVSPropertyOp24
 70
     1
102
RTVSPropertyOp25
 70
     1
102
RTVSPropertyOp26
 70
     1
102
RTVSPropertyOp27
 70
     1
102
RTVSPropertyOp28
 70
     1
102
RTVSPropertyOp29
 70
     1
102
RTVSPropertyOp30
 70
     1
102
RTVSPropertyOp31
 70
     1
102
RTVSPropertyOp32
 70
     1
  0
XRECORD
  5
12D7
102
{ACAD_REACTORS
330
12D6
102
}
330
12D6
100
AcDbXrecord
280
     1
102
RTVSPropertyOp0
 70
     1
102
RTVSPropertyOp1
 70
     1
102
RTVSPropertyOp2
 70
     1
102
RTVSPropertyOp3
 70
     1
102
RTVSPropertyOp4
 70
     1
102
RTVSPropertyOp5
 70
     1
102
RTVSPropertyOp6
 70
     1
102
RTVSPropertyOp7
 70
     1
102
RTVSPropertyOp8
 70
     1
102
RTVSPropertyOp9
 70
     1
102
RTVSPropertyOp10
 70
     1
102
RTVSPropertyOp11
 70
     1
102
RTVSPropertyOp12
 70
     1
102
RTVSPropertyOp13
 70
     1
102
RTVSPropertyOp14
 70
     1
102
RTVSPropertyOp15
 70
     1
102
RTVSPropertyOp16
 70
     1
102
RTVSPropertyOp17
 70
     1
102
RTVSPropertyOp18
 70
     1
102
RTVSPropertyOp19
 70
     1
102
RTVSPropertyOp20
 70
     1
102
RTVSPropertyOp21
 70
     1
102
RTVSPropertyOp22
 70
     1
102
RTVSPropertyOp23
 70
     1
102
RTVSPropertyOp24
 70
     1
102
RTVSPropertyOp25
 70
     1
102
RTVSPropertyOp26
 70
     1
102
RTVSPropertyOp27
 70
     1
102
RTVSPropertyOp28
 70
     1
102
RTVSPropertyOp29
 70
     1
102
RTVSPropertyOp30
 70
     1
102
RTVSPropertyOp31
 70
     1
102
RTVSPropertyOp32
 70
     1
  0
XRECORD
  5
12D9
102
{ACAD_REACTORS
330
12D8
102
}
330
12D8
100
AcDbXrecord
280
     1
102
RTVSPropertyOp0
 70
     1
102
RTVSPropertyOp1
 70
     1
102
RTVSPropertyOp2
 70
     1
102
RTVSPropertyOp3
 70
     1
102
RTVSPropertyOp4
 70
     1
102
RTVSPropertyOp5
 70
     1
102
RTVSPropertyOp6
 70
     1
102
RTVSPropertyOp7
 70
     1
102
RTVSPropertyOp8
 70
     1
102
RTVSPropertyOp9
 70
     1
102
RTVSPropertyOp10
 70
     1
102
RTVSPropertyOp11
 70
     1
102
RTVSPropertyOp12
 70
     1
102
RTVSPropertyOp13
 70
     1
102
RTVSPropertyOp14
 70
     1
102
RTVSPropertyOp15
 70
     1
102
RTVSPropertyOp16
 70
     1
102
RTVSPropertyOp17
 70
     1
102
RTVSPropertyOp18
 70
     1
102
RTVSPropertyOp19
 70
     1
102
RTVSPropertyOp20
 70
     1
102
RTVSPropertyOp21
 70
     1
102
RTVSPropertyOp22
 70
     1
102
RTVSPropertyOp23
 70
     1
102
RTVSPropertyOp24
 70
     1
102
RTVSPropertyOp25
 70
     1
102
RTVSPropertyOp26
 70
     1
102
RTVSPropertyOp27
 70
     1
102
RTVSPropertyOp28
 70
     1
102
RTVSPropertyOp29
 70
     1
102
RTVSPropertyOp30
 70
     1
102
RTVSPropertyOp31
 70
     1
102
RTVSPropertyOp32
 70
     1
  0
XRECORD
  5
12E1
102
{ACAD_REACTORS
330
12E0
102
}
330
12E0
100
AcDbXrecord
280
     1
102
RTVSPropertyOp0
 70
     1
102
RTVSPropertyOp1
 70
     1
102
RTVSPropertyOp2
 70
     1
102
RTVSPropertyOp3
 70
     1
102
RTVSPropertyOp4
 70
     1
102
RTVSPropertyOp5
 70
     1
102
RTVSPropertyOp6
 70
     1
102
RTVSPropertyOp7
 70
     1
102
RTVSPropertyOp8
 70
     1
102
RTVSPropertyOp9
 70
     1
102
RTVSPropertyOp10
 70
     1
102
RTVSPropertyOp11
 70
     1
102
RTVSPropertyOp12
 70
     1
102
RTVSPropertyOp13
 70
     1
102
RTVSPropertyOp14
 70
     1
102
RTVSPropertyOp15
 70
     1
102
RTVSPropertyOp16
 70
     1
102
RTVSPropertyOp17
 70
     1
102
RTVSPropertyOp18
 70
     1
102
RTVSPropertyOp19
 70
     1
102
RTVSPropertyOp20
 70
     1
102
RTVSPropertyOp21
 70
     1
102
RTVSPropertyOp22
 70
     1
102
RTVSPropertyOp23
 70
     1
102
RTVSPropertyOp24
 70
     1
102
RTVSPropertyOp25
 70
     1
102
RTVSPropertyOp26
 70
     1
102
RTVSPropertyOp27
 70
     1
102
RTVSPropertyOp28
 70
     1
102
RTVSPropertyOp29
 70
     1
102
RTVSPropertyOp30
 70
     1
102
RTVSPropertyOp31
 70
     1
102
RTVSPropertyOp32
 70
     1
  0
XRECORD
  5
12FD
102
{ACAD_REACTORS
330
12FC
102
}
330
12FC
100
AcDbXrecord
280
     1
102
RTVSPropertyOp0
 70
     0
102
RTVSPropertyOp1
 70
     0
102
RTVSPropertyOp2
 70
     0
102
RTVSPropertyOp3
 70
     0
102
RTVSPropertyOp4
 70
     0
102
RTVSPropertyOp5
 70
     0
102
RTVSPropertyOp6
 70
     0
102
RTVSPropertyOp7
 70
     0
102
RTVSPropertyOp8
 70
     0
102
RTVSPropertyOp9
 70
     0
102
RTVSPropertyOp10
 70
     0
102
RTVSPropertyOp11
 70
     0
102
RTVSPropertyOp12
 70
     0
102
RTVSPropertyOp13
 70
     0
102
RTVSPropertyOp14
 70
     2
102
RTVSPropertyOp15
 70
     0
102
RTVSPropertyOp16
 70
     0
102
RTVSPropertyOp17
 70
     0
102
RTVSPropertyOp18
 70
     0
102
RTVSPropertyOp19
 70
     0
102
RTVSPropertyOp20
 70
     0
102
RTVSPropertyOp21
 70
     0
102
RTVSPropertyOp22
 70
     0
102
RTVSPropertyOp23
 70
     0
102
RTVSPropertyOp24
 70
     0
102
RTVSPropertyOp25
 70
     0
102
RTVSPropertyOp26
 70
     0
102
RTVSPropertyOp27
 70
     0
102
RTVSPropertyOp28
 70
     0
102
RTVSPropertyOp29
 70
     0
102
RTVSPropertyOp30
 70
     0
102
RTVSPropertyOp31
 70
     0
102
RTVSPropertyOp32
 70
     0
  0
XRECORD
  5
12ED
102
{ACAD_REACTORS
330
12EC
102
}
330
12EC
100
AcDbXrecord
280
     1
102
RTVSPropertyOp0
 70
     1
102
RTVSPropertyOp1
 70
     1
102
RTVSPropertyOp2
 70
     1
102
RTVSPropertyOp3
 70
     1
102
RTVSPropertyOp4
 70
     1
102
RTVSPropertyOp5
 70
     1
102
RTVSPropertyOp6
 70
     1
102
RTVSPropertyOp7
 70
     1
102
RTVSPropertyOp8
 70
     1
102
RTVSPropertyOp9
 70
     1
102
RTVSPropertyOp10
 70
     1
102
RTVSPropertyOp11
 70
     1
102
RTVSPropertyOp12
 70
     1
102
RTVSPropertyOp13
 70
     1
102
RTVSPropertyOp14
 70
     1
102
RTVSPropertyOp15
 70
     1
102
RTVSPropertyOp16
 70
     1
102
RTVSPropertyOp17
 70
     1
102
RTVSPropertyOp18
 70
     1
102
RTVSPropertyOp19
 70
     1
102
RTVSPropertyOp20
 70
     1
102
RTVSPropertyOp21
 70
     1
102
RTVSPropertyOp22
 70
     1
102
RTVSPropertyOp23
 70
     1
102
RTVSPropertyOp24
 70
     1
102
RTVSPropertyOp25
 70
     1
102
RTVSPropertyOp26
 70
     1
102
RTVSPropertyOp27
 70
     1
102
RTVSPropertyOp28
 70
     1
102
RTVSPropertyOp29
 70
     1
102
RTVSPropertyOp30
 70
     1
102
RTVSPropertyOp31
 70
     1
102
RTVSPropertyOp32
 70
     1
  0
XRECORD
  5
12FF
102
{ACAD_REACTORS
330
12FE
102
}
330
12FE
100
AcDbXrecord
280
     1
102
RTVSPropertyOp0
 70
     0
102
RTVSPropertyOp1
 70
     0
102
RTVSPropertyOp2
 70
     0
102
RTVSPropertyOp3
 70
     0
102
RTVSPropertyOp4
 70
     0
102
RTVSPropertyOp5
 70
     0
102
RTVSPropertyOp6
 70
     0
102
RTVSPropertyOp7
 70
     0
102
RTVSPropertyOp8
 70
     0
102
RTVSPropertyOp9
 70
     0
102
RTVSPropertyOp10
 70
     0
102
RTVSPropertyOp11
 70
     0
102
RTVSPropertyOp12
 70
     0
102
RTVSPropertyOp13
 70
     0
102
RTVSPropertyOp14
 70
     2
102
RTVSPropertyOp15
 70
     0
102
RTVSPropertyOp16
 70
     0
102
RTVSPropertyOp17
 70
     0
102
RTVSPropertyOp18
 70
     0
102
RTVSPropertyOp19
 70
     0
102
RTVSPropertyOp20
 70
     0
102
RTVSPropertyOp21
 70
     0
102
RTVSPropertyOp22
 70
     0
102
RTVSPropertyOp23
 70
     0
102
RTVSPropertyOp24
 70
     0
102
RTVSPropertyOp25
 70
     0
102
RTVSPropertyOp26
 70
     0
102
RTVSPropertyOp27
 70
     0
102
RTVSPropertyOp28
 70
     0
102
RTVSPropertyOp29
 70
     0
102
RTVSPropertyOp30
 70
     0
102
RTVSPropertyOp31
 70
     0
102
RTVSPropertyOp32
 70
     0
  0
XRECORD
  5
12E5
102
{ACAD_REACTORS
330
12E4
102
}
330
12E4
100
AcDbXrecord
280
     1
102
RTVSPropertyOp0
 70
     1
102
RTVSPropertyOp1
 70
     1
102
RTVSPropertyOp2
 70
     1
102
RTVSPropertyOp3
 70
     1
102
RTVSPropertyOp4
 70
     1
102
RTVSPropertyOp5
 70
     1
102
RTVSPropertyOp6
 70
     1
102
RTVSPropertyOp7
 70
     1
102
RTVSPropertyOp8
 70
     1
102
RTVSPropertyOp9
 70
     1
102
RTVSPropertyOp10
 70
     1
102
RTVSPropertyOp11
 70
     1
102
RTVSPropertyOp12
 70
     1
102
RTVSPropertyOp13
 70
     1
102
RTVSPropertyOp14
 70
     1
102
RTVSPropertyOp15
 70
     1
102
RTVSPropertyOp16
 70
     1
102
RTVSPropertyOp17
 70
     1
102
RTVSPropertyOp18
 70
     1
102
RTVSPropertyOp19
 70
     1
102
RTVSPropertyOp20
 70
     1
102
RTVSPropertyOp21
 70
     1
102
RTVSPropertyOp22
 70
     1
102
RTVSPropertyOp23
 70
     1
102
RTVSPropertyOp24
 70
     1
102
RTVSPropertyOp25
 70
     1
102
RTVSPropertyOp26
 70
     1
102
RTVSPropertyOp27
 70
     1
102
RTVSPropertyOp28
 70
     1
102
RTVSPropertyOp29
 70
     1
102
RTVSPropertyOp30
 70
     1
102
RTVSPropertyOp31
 70
     1
102
RTVSPropertyOp32
 70
     1
  0
XRECORD
  5
12FB
102
{ACAD_REACTORS
330
12FA
102
}
330
12FA
100
AcDbXrecord
280
     1
102
RTVSPropertyOp0
 70
     1
102
RTVSPropertyOp1
 70
     1
102
RTVSPropertyOp2
 70
     1
102
RTVSPropertyOp3
 70
     1
102
RTVSPropertyOp4
 70
     1
102
RTVSPropertyOp5
 70
     1
102
RTVSPropertyOp6
 70
     1
102
RTVSPropertyOp7
 70
     1
102
RTVSPropertyOp8
 70
     1
102
RTVSPropertyOp9
 70
     1
102
RTVSPropertyOp10
 70
     1
102
RTVSPropertyOp11
 70
     1
102
RTVSPropertyOp12
 70
     1
102
RTVSPropertyOp13
 70
     1
102
RTVSPropertyOp14
 70
     1
102
RTVSPropertyOp15
 70
     1
102
RTVSPropertyOp16
 70
     1
102
RTVSPropertyOp17
 70
     1
102
RTVSPropertyOp18
 70
     1
102
RTVSPropertyOp19
 70
     1
102
RTVSPropertyOp20
 70
     1
102
RTVSPropertyOp21
 70
     1
102
RTVSPropertyOp22
 70
     1
102
RTVSPropertyOp23
 70
     1
102
RTVSPropertyOp24
 70
     1
102
RTVSPropertyOp25
 70
     1
102
RTVSPropertyOp26
 70
     1
102
RTVSPropertyOp27
 70
     1
102
RTVSPropertyOp28
 70
     1
102
RTVSPropertyOp29
 70
     1
102
RTVSPropertyOp30
 70
     1
102
RTVSPropertyOp31
 70
     1
102
RTVSPropertyOp32
 70
     1
  0
XRECORD
  5
12F9
102
{ACAD_REACTORS
330
12F8
102
}
330
12F8
100
AcDbXrecord
280
     1
102
RTVSPropertyOp0
 70
     1
102
RTVSPropertyOp1
 70
     1
102
RTVSPropertyOp2
 70
     1
102
RTVSPropertyOp3
 70
     1
102
RTVSPropertyOp4
 70
     1
102
RTVSPropertyOp5
 70
     1
102
RTVSPropertyOp6
 70
     1
102
RTVSPropertyOp7
 70
     1
102
RTVSPropertyOp8
 70
     1
102
RTVSPropertyOp9
 70
     1
102
RTVSPropertyOp10
 70
     1
102
RTVSPropertyOp11
 70
     1
102
RTVSPropertyOp12
 70
     1
102
RTVSPropertyOp13
 70
     1
102
RTVSPropertyOp14
 70
     1
102
RTVSPropertyOp15
 70
     1
102
RTVSPropertyOp16
 70
     1
102
RTVSPropertyOp17
 70
     1
102
RTVSPropertyOp18
 70
     1
102
RTVSPropertyOp19
 70
     1
102
RTVSPropertyOp20
 70
     1
102
RTVSPropertyOp21
 70
     1
102
RTVSPropertyOp22
 70
     1
102
RTVSPropertyOp23
 70
     1
102
RTVSPropertyOp24
 70
     1
102
RTVSPropertyOp25
 70
     1
102
RTVSPropertyOp26
 70
     1
102
RTVSPropertyOp27
 70
     1
102
RTVSPropertyOp28
 70
     1
102
RTVSPropertyOp29
 70
     1
102
RTVSPropertyOp30
 70
     1
102
RTVSPropertyOp31
 70
     1
102
RTVSPropertyOp32
 70
     1
  0
XRECORD
  5
12F3
102
{ACAD_REACTORS
330
12F2
102
}
330
12F2
100
AcDbXrecord
280
     1
102
RTVSPropertyOp0
 70
     1
102
RTVSPropertyOp1
 70
     1
102
RTVSPropertyOp2
 70
     1
102
RTVSPropertyOp3
 70
     1
102
RTVSPropertyOp4
 70
     1
102
RTVSPropertyOp5
 70
     1
102
RTVSPropertyOp6
 70
     1
102
RTVSPropertyOp7
 70
     1
102
RTVSPropertyOp8
 70
     1
102
RTVSPropertyOp9
 70
     1
102
RTVSPropertyOp10
 70
     1
102
RTVSPropertyOp11
 70
     1
102
RTVSPropertyOp12
 70
     1
102
RTVSPropertyOp13
 70
     1
102
RTVSPropertyOp14
 70
     1
102
RTVSPropertyOp15
 70
     1
102
RTVSPropertyOp16
 70
     1
102
RTVSPropertyOp17
 70
     1
102
RTVSPropertyOp18
 70
     1
102
RTVSPropertyOp19
 70
     1
102
RTVSPropertyOp20
 70
     1
102
RTVSPropertyOp21
 70
     1
102
RTVSPropertyOp22
 70
     1
102
RTVSPropertyOp23
 70
     1
102
RTVSPropertyOp24
 70
     1
102
RTVSPropertyOp25
 70
     1
102
RTVSPropertyOp26
 70
     1
102
RTVSPropertyOp27
 70
     1
102
RTVSPropertyOp28
 70
     1
102
RTVSPropertyOp29
 70
     1
102
RTVSPropertyOp30
 70
     1
102
RTVSPropertyOp31
 70
     1
102
RTVSPropertyOp32
 70
     1
  0
XRECORD
  5
12F5
102
{ACAD_REACTORS
330
12F4
102
}
330
12F4
100
AcDbXrecord
280
     1
102
RTVSPropertyOp0
 70
     1
102
RTVSPropertyOp1
 70
     1
102
RTVSPropertyOp2
 70
     1
102
RTVSPropertyOp3
 70
     1
102
RTVSPropertyOp4
 70
     1
102
RTVSPropertyOp5
 70
     1
102
RTVSPropertyOp6
 70
     1
102
RTVSPropertyOp7
 70
     1
102
RTVSPropertyOp8
 70
     1
102
RTVSPropertyOp9
 70
     1
102
RTVSPropertyOp10
 70
     1
102
RTVSPropertyOp11
 70
     1
102
RTVSPropertyOp12
 70
     1
102
RTVSPropertyOp13
 70
     1
102
RTVSPropertyOp14
 70
     1
102
RTVSPropertyOp15
 70
     1
102
RTVSPropertyOp16
 70
     1
102
RTVSPropertyOp17
 70
     1
102
RTVSPropertyOp18
 70
     1
102
RTVSPropertyOp19
 70
     1
102
RTVSPropertyOp20
 70
     1
102
RTVSPropertyOp21
 70
     1
102
RTVSPropertyOp22
 70
     1
102
RTVSPropertyOp23
 70
     1
102
RTVSPropertyOp24
 70
     1
102
RTVSPropertyOp25
 70
     1
102
RTVSPropertyOp26
 70
     1
102
RTVSPropertyOp27
 70
     1
102
RTVSPropertyOp28
 70
     1
102
RTVSPropertyOp29
 70
     1
102
RTVSPropertyOp30
 70
     1
102
RTVSPropertyOp31
 70
     1
102
RTVSPropertyOp32
 70
     1
  0
XRECORD
  5
12EB
102
{ACAD_REACTORS
330
12EA
102
}
330
12EA
100
AcDbXrecord
280
     1
102
RTVSPropertyOp0
 70
     1
102
RTVSPropertyOp1
 70
     1
102
RTVSPropertyOp2
 70
     1
102
RTVSPropertyOp3
 70
     1
102
RTVSPropertyOp4
 70
     1
102
RTVSPropertyOp5
 70
     1
102
RTVSPropertyOp6
 70
     1
102
RTVSPropertyOp7
 70
     1
102
RTVSPropertyOp8
 70
     1
102
RTVSPropertyOp9
 70
     1
102
RTVSPropertyOp10
 70
     1
102
RTVSPropertyOp11
 70
     1
102
RTVSPropertyOp12
 70
     1
102
RTVSPropertyOp13
 70
     1
102
RTVSPropertyOp14
 70
     1
102
RTVSPropertyOp15
 70
     1
102
RTVSPropertyOp16
 70
     1
102
RTVSPropertyOp17
 70
     1
102
RTVSPropertyOp18
 70
     1
102
RTVSPropertyOp19
 70
     1
102
RTVSPropertyOp20
 70
     1
102
RTVSPropertyOp21
 70
     1
102
RTVSPropertyOp22
 70
     1
102
RTVSPropertyOp23
 70
     1
102
RTVSPropertyOp24
 70
     1
102
RTVSPropertyOp25
 70
     1
102
RTVSPropertyOp26
 70
     1
102
RTVSPropertyOp27
 70
     1
102
RTVSPropertyOp28
 70
     1
102
RTVSPropertyOp29
 70
     1
102
RTVSPropertyOp30
 70
     1
102
RTVSPropertyOp31
 70
     1
102
RTVSPropertyOp32
 70
     1
  0
XRECORD
  5
12DF
102
{ACAD_REACTORS
330
12DE
102
}
330
12DE
100
AcDbXrecord
280
     1
102
RTVSPropertyOp0
 70
     1
102
RTVSPropertyOp1
 70
     1
102
RTVSPropertyOp2
 70
     1
102
RTVSPropertyOp3
 70
     1
102
RTVSPropertyOp4
 70
     1
102
RTVSPropertyOp5
 70
     1
102
RTVSPropertyOp6
 70
     1
102
RTVSPropertyOp7
 70
     1
102
RTVSPropertyOp8
 70
     1
102
RTVSPropertyOp9
 70
     1
102
RTVSPropertyOp10
 70
     1
102
RTVSPropertyOp11
 70
     1
102
RTVSPropertyOp12
 70
     1
102
RTVSPropertyOp13
 70
     1
102
RTVSPropertyOp14
 70
     1
102
RTVSPropertyOp15
 70
     1
102
RTVSPropertyOp16
 70
     1
102
RTVSPropertyOp17
 70
     1
102
RTVSPropertyOp18
 70
     1
102
RTVSPropertyOp19
 70
     1
102
RTVSPropertyOp20
 70
     1
102
RTVSPropertyOp21
 70
     1
102
RTVSPropertyOp22
 70
     1
102
RTVSPropertyOp23
 70
     1
102
RTVSPropertyOp24
 70
     1
102
RTVSPropertyOp25
 70
     1
102
RTVSPropertyOp26
 70
     1
102
RTVSPropertyOp27
 70
     1
102
RTVSPropertyOp28
 70
     1
102
RTVSPropertyOp29
 70
     1
102
RTVSPropertyOp30
 70
     1
102
RTVSPropertyOp31
 70
     1
102
RTVSPropertyOp32
 70
     1
  0
XRECORD
  5
12F7
102
{ACAD_REACTORS
330
12F6
102
}
330
12F6
100
AcDbXrecord
280
     1
102
RTVSPropertyOp0
 70
     1
102
RTVSPropertyOp1
 70
     1
102
RTVSPropertyOp2
 70
     1
102
RTVSPropertyOp3
 70
     1
102
RTVSPropertyOp4
 70
     1
102
RTVSPropertyOp5
 70
     1
102
RTVSPropertyOp6
 70
     1
102
RTVSPropertyOp7
 70
     1
102
RTVSPropertyOp8
 70
     1
102
RTVSPropertyOp9
 70
     1
102
RTVSPropertyOp10
 70
     1
102
RTVSPropertyOp11
 70
     1
102
RTVSPropertyOp12
 70
     1
102
RTVSPropertyOp13
 70
     1
102
RTVSPropertyOp14
 70
     1
102
RTVSPropertyOp15
 70
     1
102
RTVSPropertyOp16
 70
     1
102
RTVSPropertyOp17
 70
     1
102
RTVSPropertyOp18
 70
     1
102
RTVSPropertyOp19
 70
     1
102
RTVSPropertyOp20
 70
     1
102
RTVSPropertyOp21
 70
     1
102
RTVSPropertyOp22
 70
     1
102
RTVSPropertyOp23
 70
     1
102
RTVSPropertyOp24
 70
     1
102
RTVSPropertyOp25
 70
     1
102
RTVSPropertyOp26
 70
     1
102
RTVSPropertyOp27
 70
     1
102
RTVSPropertyOp28
 70
     1
102
RTVSPropertyOp29
 70
     1
102
RTVSPropertyOp30
 70
     1
102
RTVSPropertyOp31
 70
     1
102
RTVSPropertyOp32
 70
     1
  0
ENDSEC
  0
EOF
